<?xml version="1.0" standalone="no"?>
<!DOCTYPE svg PUBLIC "-//W3C//DTD SVG 1.1//EN" "http://www.w3.org/Graphics/SVG/1.1/DTD/svg11.dtd" >
<!--
2016-4-13: Created with FontForge (http://fontforge.org)
-->
<svg xmlns="http://www.w3.org/2000/svg" xmlns:xlink="http://www.w3.org/1999/xlink" version="1.1">
<metadata>
Created by FontForge 20150603 at Wed Apr 13 15:28:59 2016
 By icons8
Copyright (c) 2016, icons8
</metadata>
<defs>
<font id="CMSI-Icons" horiz-adv-x="512" >
  <font-face 
    font-family="CMSI-Icons"
    font-weight="400"
    font-stretch="normal"
    units-per-em="512"
    panose-1="2 0 5 3 0 0 0 0 0 0"
    ascent="448"
    descent="-64"
    bbox="-0.279556 -64 519 449"
    underline-thickness="25.6"
    underline-position="-51.2"
    unicode-range="U+F100-F150"
  />
    <missing-glyph />
    <glyph glyph-name="uniF137" unicode="&#xf137;" horiz-adv-x="430" 
d="M0 448h10h410h10v-10v-492v-10h-10h-410h-10v10v492v10zM20 428v-472h390v472h-390zM92 335h246v-20h-246v20zM92 192h41v-20h-41v20zM164 192h174v-20h-174v20zM92 131h41v-21h-41v21zM164 131h174v-21h-174v21zM92 69h41v-20h-41v20zM164 69h174v-20h-174v20z" />
    <glyph glyph-name="uniF126" unicode="&#xf126;" horiz-adv-x="471" 
d="M0 448h10h205h4l3 -3l144 -143l3 -3v-5v-102v0c0 -6 -5 -10 -11 -10s-10 4 -10 10v0v92h-133h-10v10v134h-185v-451h195v0c6 0 10 -4 10 -10s-4 -11 -10 -11v0h-205h-10v11v471v10zM225 413v-108h108zM328 208l37 -98l106 -5l-82 -67l28 -102l-89 57l-89 -57l27 102
l-82 67l106 5zM328 152l-20 -49l-5 -12l-13 -1l-53 -4l41 -32l11 -9l-3 -13l-14 -50l44 29l12 7l10 -7l44 -29l-13 50l-4 13l11 9l41 32l-53 4l-13 1l-5 12z" />
    <glyph glyph-name="uniF117" unicode="&#xf117;" horiz-adv-x="492" 
d="M246 448c115 0 213 -76 245 -181v-4c0 -6 -4 -11 -10 -11c-5 0 -9 4 -10 9c-8 28 -22 53 -39 75c-20 -11 -43 -20 -68 -27c4 -14 7 -29 9 -44c0 -1 1 -1 1 -2c0 -6 -5 -10 -11 -10c-5 0 -10 4 -10 9c-2 15 -5 30 -9 43c-27 -6 -57 -9 -88 -10v-31h-20v31
c-31 1 -62 4 -89 10c-4 -13 -7 -28 -9 -43c0 -5 -5 -9 -10 -9c-6 0 -10 4 -10 10v2c2 15 5 30 9 44c-25 7 -47 16 -67 27c-17 -22 -32 -47 -40 -75c-1 -5 -5 -9 -10 -9c-6 0 -10 5 -10 11c0 1 1 3 1 4c32 105 130 181 245 181zM236 427c-20 -4 -39 -19 -56 -44
c-11 -16 -19 -36 -27 -59c26 -5 54 -8 83 -9v112zM256 427v-112c29 1 57 4 83 9c-8 23 -17 43 -28 59c-17 25 -35 40 -55 44zM184 419c-43 -12 -81 -35 -111 -67c17 -9 37 -17 60 -23c8 25 19 47 31 65c6 9 13 18 20 25zM307 419c7 -7 15 -16 21 -25c12 -18 22 -40 30 -65
c23 6 44 14 61 23c-30 32 -69 55 -112 67zM0 233h20l19 -67v0l22 67h20l21 -67h1l20 67h19l-30 -87h-19l-22 67v0l-23 -67h-19zM175 233h19l20 -67v0l22 67h20l21 -67v0l21 67h19l-30 -87h-19l-22 67h-1l-22 -67h-20zM349 233h20l19 -67l23 67h19l22 -67v0l20 67h20l-31 -87
h-19l-22 67v0l-22 -67h-20zM364 132v0c6 0 10 -5 10 -11c0 -1 -1 -1 -1 -2c-2 -15 -5 -30 -9 -44c25 -7 48 -16 68 -27c17 22 31 47 39 75c1 5 5 9 10 9c6 0 10 -5 10 -11v-4c-32 -105 -130 -181 -245 -181s-213 76 -245 181c0 1 -1 3 -1 4c0 4 4 9 8 10h3c4 0 8 -4 9 -8
c8 -28 23 -53 40 -75c20 11 42 20 67 27c-4 14 -7 29 -9 44v1c0 5 3 10 8 11h2c5 0 9 -4 10 -9c2 -15 5 -30 9 -43c27 6 58 9 89 10v31h20v-31c31 -1 61 -4 88 -10c4 13 7 28 9 43c0 5 6 10 11 10v0zM236 69c-29 -1 -57 -4 -83 -9c8 -23 16 -43 27 -59c17 -25 36 -40 56 -44
v112zM256 69v-112c20 4 38 19 55 44c11 16 20 36 28 59c-26 5 -54 8 -83 9zM358 55c-8 -25 -18 -47 -30 -65c-6 -9 -14 -18 -21 -25c43 12 82 35 112 67c-17 9 -38 17 -61 23zM133 55c-23 -6 -43 -14 -60 -23c30 -32 68 -55 111 -67c-7 7 -14 16 -20 25
c-12 18 -23 40 -31 65z" />
    <glyph glyph-name="uniF141" unicode="&#xf141;" horiz-adv-x="513" 
d="M174 448v0h3h160h2h2h162h10v-10v-162v-2v-2v-160v-2v-2v-162v-10h-10h-162h-4h-160h-4h-162h-10v10v160c-1 1 -1 3 -1 4s0 4 1 5v155c-1 1 -1 3 -1 4s0 4 1 5v52v1v2v104v10h10h162h1zM22 428v-73l35 30l8 6l6 -8l32 -38l23 11l6 3l5 -4l28 -26v99h-143zM185 428v-120
c0 -1 1 -3 1 -4s-1 -3 -1 -4v-16h144v144h-144zM349 428v-144h144v144h-144zM129 407c8 0 15 -7 15 -15s-7 -16 -15 -16s-15 8 -15 16s7 15 15 15zM257 407c0 0 7 -18 13 -21s23 6 23 6s-7 -17 -5 -24c2 -5 20 -12 20 -12s-19 -7 -21 -12c-2 -6 6 -24 6 -24s-18 8 -24 6
s-12 -21 -12 -21s-7 18 -13 21s-23 -6 -23 -6s7 16 5 24c-1 5 -20 12 -20 12s20 8 21 12c2 6 -6 24 -6 24s18 -8 24 -6s12 21 12 21zM385 407c8 0 15 -7 15 -15s-7 -16 -15 -16s-15 8 -15 16s7 15 15 15zM439 376c13 0 22 -8 27 -19c9 -4 16 -13 16 -24
c0 -15 -12 -28 -27 -28h-51c-13 0 -24 12 -24 25c0 10 8 18 17 21c4 8 10 13 19 14c6 7 14 11 23 11zM257 373c-9 0 -17 -8 -17 -17s8 -17 17 -17s17 8 17 17s-8 17 -17 17zM62 362l-40 -35v-43h143v16l-36 35l-24 -12l-7 -4l-5 7zM439 356c-3 0 -7 -2 -9 -5l-3 -5h-6
c-4 0 -7 -2 -8 -5l-2 -7h-7c-2 0 -4 -2 -4 -4s2 -4 4 -4h51c4 0 7 3 7 7c0 3 -3 6 -6 7l-6 1l-1 7c-1 5 -5 8 -10 8zM22 264v-144h143v47v2v1v94h-143zM185 264v-73l36 30l8 7l6 -8l32 -39l23 11l6 4l5 -5l28 -26v99h-144zM349 264v-120c0 -1 1 -3 1 -4s-1 -3 -1 -4v-16h144
v144h-144zM111 253c4 0 8 -1 12 -3c11 -6 14 -19 14 -27c0 -4 -1 -5 -1 -8c3 -2 5 -3 9 -7c5 -6 12 -16 9 -27c-3 -12 -13 -18 -21 -21c-4 -2 -5 -2 -8 -2c-1 -3 -1 -4 -3 -8s-4 -8 -8 -12s-10 -7 -16 -7c-5 0 -10 2 -14 4c-8 5 -13 11 -16 16c-6 0 -14 0 -23 5
c-5 3 -10 7 -12 13c-4 12 0 23 5 30c2 3 4 3 6 5c-1 3 -2 4 -3 8c-2 8 -1 20 8 29c7 7 17 8 24 7c6 -1 10 -2 14 -4c2 2 2 2 6 4s9 4 14 5h4zM293 243c8 0 15 -7 15 -15s-7 -16 -15 -16s-15 8 -15 16s7 15 15 15zM421 243c0 0 7 -18 13 -21s23 6 23 6s-7 -17 -5 -24
c2 -5 20 -12 20 -12s-19 -7 -21 -12c-2 -6 6 -24 6 -24s-18 8 -24 6s-12 -21 -12 -21s-8 18 -14 21s-22 -6 -22 -6s7 16 5 24c-1 5 -20 12 -20 12s20 8 21 12c2 6 -6 24 -6 24s18 -8 24 -6s12 21 12 21zM111 233c-1 0 -1 -1 -2 -1c-2 0 -4 -1 -6 -2c-5 -2 -8 -6 -8 -6l-6 -6
l-7 5s-1 0 -2 1c-2 1 -7 3 -10 4s-5 1 -7 -1c-3 -3 -3 -6 -2 -11s3 -9 3 -9l4 -7l-6 -6s-4 -3 -7 -7s-3 -8 -2 -11c0 -1 1 -1 2 -2c4 -2 16 -2 16 -2l8 1l3 -7s7 -10 12 -13c1 -1 2 -1 3 -1s1 0 2 1s3 4 4 6l4 10l1 7l8 1s5 0 10 2s7 4 8 7c0 2 0 5 -3 8s-9 5 -10 6v1l-7 3
l2 8s1 5 1 10s-2 9 -4 10c0 0 -1 1 -2 1zM102 217c1 0 1 0 2 -1c7 -4 -10 -20 -10 -20s23 3 22 -5s-22 3 -22 3s9 -21 1 -22s-4 22 -4 22s-17 -15 -20 -8s19 10 19 10s-21 12 -14 17s16 -15 16 -15s4 17 10 19zM421 209c-9 0 -17 -8 -17 -17s8 -17 17 -17s17 8 17 17
s-8 17 -17 17zM226 198l-41 -34v-44h144v17l-36 34l-24 -12l-7 -3l-5 6zM22 100v-144h143v144h-143zM185 100v-144h144v144h-144zM349 100v-144h144v144h-144zM438 89c4 0 9 -1 13 -3c11 -6 14 -19 14 -27c0 -4 -1 -5 -1 -8c3 -2 5 -3 9 -7c5 -6 12 -16 9 -27
c-3 -12 -14 -18 -22 -21c-4 -2 -5 -2 -8 -2c-1 -3 -1 -4 -3 -8s-4 -8 -8 -12s-9 -7 -15 -7c-5 0 -11 2 -15 4c-8 5 -13 11 -16 16c-6 0 -14 0 -23 5c-5 3 -9 7 -11 13c-4 12 0 23 5 30c2 3 3 3 5 5c-1 3 -1 4 -2 8c-2 8 -2 20 7 29c7 7 18 8 25 7c6 -1 9 -2 13 -4
c2 2 3 2 7 4s9 4 14 5h3zM93 79c0 0 8 -18 14 -21s22 6 22 6s-7 -17 -5 -24c2 -5 20 -12 20 -12s-19 -7 -21 -12c-2 -6 6 -24 6 -24s-18 8 -24 6s-12 -21 -12 -21s-7 18 -13 21s-23 -6 -23 -6s7 16 5 24c-1 5 -20 12 -20 12s20 8 21 12c2 6 -6 24 -6 24s18 -8 24 -6
s12 21 12 21zM221 79c8 0 16 -7 16 -15s-8 -15 -16 -15s-15 7 -15 15s7 15 15 15zM439 69c-1 0 -1 -1 -2 -1c-2 0 -4 -1 -6 -2c-5 -2 -9 -6 -9 -6l-6 -6l-7 6s-1 -1 -2 0c-2 1 -6 3 -9 4s-5 1 -7 -1c-3 -3 -3 -6 -2 -11s3 -9 3 -9l4 -7l-6 -6s-4 -3 -7 -7s-4 -8 -3 -11
c0 -1 1 -1 2 -2c4 -2 17 -2 17 -2l8 2l3 -7s7 -11 12 -14c1 -1 2 -1 3 -1s1 0 2 1s3 4 4 6c2 5 3 10 3 10l2 7l8 1s4 0 9 2s8 4 9 7c0 2 -1 5 -4 8s-8 5 -9 6v1l-7 3l2 8v10s-1 9 -3 10c0 0 -1 1 -2 1zM429 53c1 0 2 0 3 -1c7 -4 -10 -19 -10 -19s22 2 21 -6s-21 3 -21 3
s8 -21 0 -22s-3 22 -3 22s-18 -15 -21 -8s20 10 20 10s-21 12 -14 17s16 -15 16 -15s3 17 9 19zM275 49c13 0 22 -9 27 -20c9 -4 16 -13 16 -24c0 -15 -12 -27 -27 -27h-51c-13 0 -24 11 -24 24c0 10 8 19 17 22c4 8 11 12 20 13c6 7 13 12 22 12zM93 45
c-9 0 -17 -8 -17 -17s8 -17 17 -17s17 8 17 17s-8 17 -17 17zM275 28c-3 0 -6 -2 -8 -5l-4 -5l-6 1c-4 0 -7 -3 -8 -6l-2 -7h-7c-2 0 -3 -2 -3 -4s1 -4 3 -4h51c4 0 7 3 7 7c0 3 -2 6 -5 7l-7 2l-1 6c-1 5 -5 8 -10 8z" />
    <glyph glyph-name="uniF12D" unicode="&#xf12d;" horiz-adv-x="307" 
d="M82 407c10 0 19 -3 27 -10s14 -18 14 -31v-78c6 4 12 6 20 6c16 0 28 -9 35 -20c7 6 16 10 27 10c12 0 24 -5 31 -14c3 -4 5 -8 7 -14c6 5 13 8 23 8c18 0 30 -10 35 -21s6 -23 6 -31v-184c0 -51 -41 -92 -92 -92h-93c-34 0 -67 20 -82 51v0l-29 57v0v0
c-3 7 -11 27 -11 47c0 28 12 47 24 57c8 7 12 7 17 9v210c0 13 6 23 14 30s17 10 27 10zM82 387c-5 0 -10 -3 -14 -6s-7 -7 -7 -14v-216v0c0 -4 -3 -9 -7 -10c0 0 -9 -2 -17 -9s-17 -19 -17 -41c0 -14 7 -31 10 -38v0l28 -57c12 -24 37 -40 64 -40h93c39 0 72 33 72 72v184
c0 7 -1 16 -4 22s-6 9 -17 9s-14 -3 -17 -9s-3 -15 -3 -22h-21v21c0 13 -2 21 -5 25s-7 6 -15 6c-9 0 -14 -3 -17 -6s-4 -10 -4 -15v-20h-20v20v10c0 9 -7 21 -21 21s-20 -12 -20 -21v-41h-21v41v113c0 8 -2 12 -6 15s-9 6 -14 6z" />
    <glyph glyph-name="uniF122" unicode="&#xf122;" 
d="M256 448c141 0 256 -115 256 -256s-115 -256 -256 -256s-256 115 -256 256s115 256 256 256zM256 428c-130 0 -236 -106 -236 -236s106 -236 236 -236s236 106 236 236s-106 236 -236 236zM259 320c40 0 66 -26 66 -62c0 -18 -6 -31 -18 -48l-25 -34
c-7 -10 -9 -16 -9 -28v-11c0 -2 -2 -4 -4 -4h-24c-2 0 -4 2 -4 4v15c0 15 3 22 11 33l24 34c13 18 18 26 18 38c0 21 -15 34 -36 34s-34 -13 -38 -35c0 -2 -2 -3 -4 -3l-23 5c-2 0 -3 1 -3 3c6 35 31 59 69 59zM243 105h28c2 0 4 -2 4 -4v-31c0 -2 -2 -4 -4 -4h-28
c-2 0 -4 2 -4 4v31c0 2 2 4 4 4z" />
    <glyph glyph-name="uniF135" unicode="&#xf135;" 
d="M368 448c2 0 4 -1 6 -1c4 -1 8 -2 11 -5l121 -122c6 -6 7 -16 5 -24s-7 -14 -14 -19h-1l-120 -82c13 -53 -1 -112 -42 -153c-2 -2 -5 -3 -7 -3s-5 1 -7 3l-76 76l-227 -180c-2 -1 -5 -2 -7 -2c-6 0 -10 4 -10 10c0 2 1 5 2 7l180 227l-76 76c-2 2 -3 5 -3 7s1 5 3 7
c41 41 98 55 151 43l85 120v0c5 7 12 12 20 14c2 1 4 1 6 1zM370 428c0 0 -1 -1 -2 -1c-2 -1 -6 -2 -9 -6l-1 -1l-88 -124c-2 -2 -5 -5 -8 -5c-1 0 -2 1 -3 1c-44 13 -93 2 -130 -30l197 -197c32 37 42 87 29 132v3c0 3 2 6 4 8v0l1 1l124 84l1 1c4 3 5 6 6 8s0 3 0 3
l-120 122zM197 165l-124 -156l156 124z" />
    <glyph glyph-name="uniF140" unicode="&#xf140;" horiz-adv-x="492" 
d="M19 428v0h1v0v0h69c16 0 29 -5 38 -13s14 -20 18 -33v0v0l22 -88h19v1l87 86c1 1 4 4 6 4h1c2 0 5 -2 7 -4l34 -33l34 33c1 1 4 4 6 4h1c2 0 5 -2 7 -4l87 -86v-1h25v0c6 0 11 -4 11 -10c0 -1 -1 -2 -1 -3l-74 -195c-1 -4 -5 -7 -9 -7v0h-188l7 -27v-1
c3 -11 6 -20 10 -25s10 -8 26 -8h3h154c6 0 10 -4 10 -10c0 -1 -1 -3 -1 -4c7 -7 11 -16 11 -27c0 -22 -19 -41 -41 -41c-23 0 -41 19 -41 41c0 8 2 14 6 20h-63c4 -6 6 -12 6 -20c0 -22 -19 -41 -41 -41c-23 0 -41 19 -41 41c0 10 4 19 10 26c-5 3 -9 6 -13 10
c-9 10 -12 21 -15 33l-82 331c-3 11 -7 19 -12 23s-11 7 -24 7h-48c0 -11 -10 -20 -21 -20s-20 9 -20 20c0 10 8 19 18 20zM280 360l-65 -66h131l-28 29h-1c-3 1 -5 3 -6 6zM362 360l-26 -27l38 -38v-1h54zM172 274l43 -174h186l66 174h-295zM266 -3c-11 0 -20 -9 -20 -20
s9 -21 20 -21s21 10 21 21s-10 20 -21 20zM399 -3c-11 0 -20 -9 -20 -20s9 -21 20 -21s21 10 21 21s-10 20 -21 20z" />
    <glyph glyph-name="uniF13F" unicode="&#xf13f;" 
d="M410 448c56 0 102 -46 102 -102s-46 -103 -102 -103c-22 0 -42 7 -59 19l-140 -70l140 -70c17 12 37 19 59 19c56 0 102 -47 102 -103s-46 -102 -102 -102s-102 45 -103 101l-144 72c-17 -12 -38 -19 -61 -19c-56 0 -102 46 -102 102s46 102 102 102c23 0 44 -7 61 -19
l144 72c1 56 47 101 103 101zM410 428c-45 0 -81 -36 -82 -80c1 -2 2 -5 2 -7s-1 -4 -2 -5c2 -20 13 -38 27 -51v0c4 0 8 -4 9 -8c13 -9 29 -13 46 -13c45 0 82 37 82 82s-37 82 -82 82zM309 325l-130 -65c12 -14 21 -30 24 -49l131 65c-12 13 -21 30 -25 49zM102 274
c-45 0 -82 -37 -82 -82s37 -82 82 -82c20 0 38 7 52 18c1 1 1 3 2 3c16 14 27 34 28 57v0v2c-1 1 -1 4 -1 5s1 3 1 4c-2 22 -12 40 -27 54h-1l-3 3v1v0c-14 11 -32 17 -51 17zM203 173c-3 -19 -12 -35 -24 -49l130 -65c4 19 13 36 25 49zM410 120c-18 0 -35 -6 -49 -16
c-1 -1 -4 -2 -5 -3v0v-1c-17 -15 -28 -37 -28 -62c0 -45 37 -82 82 -82s82 37 82 82s-37 82 -82 82z" />
    <glyph glyph-name="uniF12A" unicode="&#xf12a;" horiz-adv-x="502" 
d="M296 448h1c6 0 10 -4 10 -10v0v-51h174c11 0 21 -10 21 -21v-348c0 -11 -10 -21 -21 -21h-174v-51c0 -6 -4 -10 -10 -10h-2l-287 55c-5 1 -8 5 -8 10v0v382v0c0 5 3 9 8 10l287 55h1zM287 426l-267 -51v-366l267 -51v47v3v2v362c-1 1 -1 4 -1 5s0 3 1 4v45zM307 366v-51
h41v-21h-41v-51h41v-20h-41v-51h41v-21h-41v-61h41v-21h-41v-51h174v348h-174zM369 315h82v-21h-82v21zM68 287h53l27 -57c2 -5 4 -10 6 -16h1c1 4 3 10 6 17l30 56h48l-57 -94l59 -97h-51l-34 62c-1 2 -2 7 -3 13h-1c-1 -3 -2 -7 -4 -13l-33 -62h-52l61 96zM369 243h82v-20
h-82v20zM369 172h82v-21h-82v21zM369 90h82v-21h-82v21z" />
    <glyph glyph-name="uniF13A" unicode="&#xf13a;" 
d="M204 446c3 0 5 -1 8 -2h1v0l43 -21l45 21v0c11 5 24 1 32 -8v0v0l29 -40l49 -1v0c13 0 23 -10 25 -22l7 -49l43 -24v0v0c9 -6 15 -18 12 -30v0l-1 -1l-15 -46l26 -42h-1c7 -10 6 -24 -3 -32v0l-1 -1l-34 -34l3 -48v-1v0v0c1 -12 -6 -24 -18 -27l-47 -13l-19 -46
c-5 -11 -18 -17 -29 -15v0v0l-49 10l-37 -31v0h-1c-4 -3 -10 -5 -16 -5c-5 0 -11 1 -16 5v0v0l-37 31l-48 -10h-1v0c-12 -3 -24 4 -29 15v0l-19 46l-48 14c-12 3 -19 15 -19 26v0v1l4 50l-36 34v0c-8 8 -10 22 -3 32v0l26 42l-16 47v0c-3 12 2 24 11 30h1v0l43 25l7 48
c2 12 12 20 23 22h1h1l50 1l29 38l1 1v0c3 5 9 8 14 9c3 1 6 1 9 1zM200 426c-1 0 -2 -1 -3 -2v0v-1l-33 -43l-3 -4h-5l-54 -1c-3 0 -6 -2 -6 -4v0l-8 -54l-1 -4l-4 -3l-46 -26c-3 -2 -4 -4 -3 -7v0l17 -51l2 -5l-3 -4l-29 -46v0v0c-1 -2 -1 -5 1 -7l39 -37l3 -4v-5l-4 -53
c0 -3 2 -5 4 -6l52 -16l4 -1l2 -5l22 -50c1 -3 3 -4 5 -3v0h1l53 11l5 1l4 -3l40 -33c1 -1 3 -2 4 -2c2 0 3 1 5 2l40 33l4 3l5 -1l52 -11h1c3 0 5 0 6 3l21 50l2 5l5 1l51 15c2 1 4 3 4 4v1v0l-4 54l-1 5l4 4l39 38v0h1c2 2 2 3 0 5v1h-1l-28 46l-3 4l2 5l17 51
c1 3 0 5 -3 7l-46 26l-5 2l-1 5l-8 54c0 2 -3 4 -4 4v0l-55 2l-5 1l-2 3l-32 43v0c-2 2 -6 4 -7 3v0l-49 -24l-5 -2l-4 2l-48 23c-2 1 -3 1 -4 1zM128 238c32 0 35 -23 35 -29h-15c0 6 -4 16 -20 16c-15 0 -16 -10 -16 -12c0 -22 54 -7 54 -41c0 -27 -32 -28 -36 -28
c-35 0 -37 25 -37 32h15c0 -4 1 -19 22 -19c18 0 20 13 20 14c0 23 -54 7 -54 41c0 6 3 26 32 26zM210 237h17l34 -90h-16l-9 24h-36l-8 -24h-17zM276 237h15v-76h46v-13h-61v89zM355 237h64v-13h-49v-24h45v-13h-45v-27h50v-13h-65v90zM219 222l-15 -39h28z" />
    <glyph glyph-name="uniF143" unicode="&#xf143;" 
d="M8 448h1v0h1v0h348c6 0 11 -4 11 -10v-59l85 -15c5 -1 9 -5 9 -10v-2l-8 -46l49 -11c4 -1 8 -6 8 -10v-2l-78 -339c-1 -4 -6 -8 -10 -8h-2l-339 78c-4 1 -8 6 -8 10v2l6 27l-31 6c-5 1 -9 5 -9 10v2l1 8h-32c-6 0 -10 5 -10 11v145v203v0c0 5 3 9 8 10zM20 428v-193v-135
h328v328h-328zM49 407h1v0h1v0h266c6 0 11 -4 11 -10v-236c0 -6 -5 -10 -11 -10h-266c-6 0 -10 4 -10 10v97v139v0c0 5 3 9 8 10zM61 387v-129v-86h21v0v0c1 13 7 24 14 31s17 11 25 15s15 6 21 9c5 3 7 5 8 7v15c-2 2 -4 3 -5 6c-2 4 -4 9 -5 14c-1 1 -2 1 -3 2
c-3 4 -5 9 -6 16v1v0c0 5 2 9 4 13c-4 17 -5 34 1 48c7 16 24 26 48 27v0v0c10 0 19 -2 26 -8c9 -2 17 -6 21 -12c5 -7 6 -15 7 -23c1 -13 -2 -22 -4 -30c3 -4 4 -9 3 -15v0v0v0c-1 -6 -2 -11 -5 -15c-1 -1 -3 -2 -4 -3c-1 -5 -3 -10 -5 -14c-1 -3 -3 -5 -4 -7h-1v-14
c1 -2 4 -4 9 -7c6 -3 14 -5 22 -9s17 -8 24 -15s13 -18 14 -31v-1v0h20v215h-246zM369 358v-21l38 -6c5 -1 9 -5 9 -10v-2l-40 -232c-1 -5 -5 -9 -10 -9h-2l-7 1h-294v-1l323 -56l55 323zM184 356c-19 -1 -25 -6 -29 -15s-4 -23 0 -40c0 -1 1 -2 1 -3c0 -3 -3 -7 -6 -9h1
c0 -1 1 0 1 -1c0 -2 1 -4 1 -4c3 -1 7 -4 7 -8c0 -3 1 -8 3 -11c1 -3 3 -5 3 -5c2 -2 5 -5 5 -8v0v-21c0 -1 -1 -2 -1 -3c-3 -9 -10 -15 -18 -19s-16 -7 -23 -10s-15 -7 -19 -11s-7 -8 -8 -16h164v0v0c-1 9 -3 13 -7 17s-12 9 -19 12s-14 5 -22 9s-16 9 -20 18v3
c-1 10 0 15 0 21v0c0 3 2 6 4 8c0 0 1 1 1 2c1 1 1 2 2 4c2 3 4 8 4 11c0 4 4 8 7 9c0 0 1 1 1 4v1v0c-2 2 -4 5 -4 8v3c2 6 6 20 5 30c0 5 -2 9 -4 12s-4 4 -10 5c-2 0 -5 2 -6 4c1 -1 -5 3 -13 3h-1zM369 316v-149l25 146zM452 286l-4 -20l7 -2c4 -1 8 -6 8 -10v-2
l-53 -229c-1 -2 -2 -6 -4 -7l-2 -7c-1 -5 -5 -9 -10 -9l-1 1l-292 49l-4 -18l319 -74l74 319z" />
    <glyph glyph-name="uniF14F" unicode="&#xf14f;" horiz-adv-x="513" 
d="M390 438c74 0 123 -54 123 -108c0 -34 -18 -61 -42 -79s-54 -28 -81 -28s-57 10 -81 28s-42 45 -42 79c0 22 8 48 28 70s52 38 95 38zM390 417c-38 0 -64 -13 -80 -30s-23 -40 -23 -57c0 -27 14 -48 34 -63s47 -24 69 -24s49 9 69 24s33 36 33 63c0 42 -37 87 -102 87z
M174 305c18 0 33 -5 43 -16c15 -3 27 -10 34 -20c8 -11 11 -23 12 -36c2 -23 -4 -44 -8 -58c4 -5 7 -12 6 -21c-1 -11 -5 -18 -9 -24c-2 -3 -4 -4 -7 -5c-2 -9 -4 -18 -8 -25c-2 -4 -5 -8 -7 -11c-1 -1 -2 -3 -3 -4c0 -10 0 -18 1 -29c3 -6 8 -11 18 -16
c11 -5 26 -11 40 -17s29 -14 41 -26s21 -28 22 -50v-11h-10h-328h-11l1 11c1 22 9 38 21 50s28 20 42 26s28 12 39 17c10 5 17 10 20 16c1 11 0 19 0 29c-1 1 -2 3 -3 4c-2 3 -5 7 -7 11c-4 7 -6 16 -8 25c-3 1 -6 2 -8 5c-4 6 -8 13 -9 24c-1 10 2 16 6 21
c-8 31 -10 62 1 86c11 26 38 43 79 44zM174 284c-35 -1 -52 -12 -60 -31s-7 -46 1 -77l2 -8l-7 -4c1 1 -3 -1 -2 -8c1 -8 4 -11 5 -13l1 -2h9l1 -9c1 -7 3 -16 7 -23c2 -3 3 -6 5 -8c1 -1 2 -3 2 -3h1l5 -3v-6c0 -12 0 -23 -1 -37v-1l-1 -1c-5 -14 -17 -23 -30 -29
s-27 -11 -40 -17s-26 -12 -35 -21c-7 -7 -10 -16 -13 -27h302c-3 11 -7 20 -14 27c-9 9 -21 15 -34 21s-28 11 -41 17s-24 15 -29 29l-1 1v1c-1 14 -1 25 -1 37v6l6 3s1 1 2 3c2 2 3 5 5 8c3 7 6 16 7 23l1 9h8l1 2s4 5 5 13c1 7 -3 9 -2 8l-7 5l3 7c4 11 10 35 8 55
c-1 10 -3 20 -8 26s-11 10 -23 12l-5 1l-3 4c-3 5 -13 10 -30 10v0zM349 212c22 0 41 -14 41 -35s-19 -36 -41 -36s-41 15 -41 36s19 35 41 35zM349 192c-12 0 -21 -8 -21 -15s9 -16 21 -16s20 9 20 16s-8 15 -20 15zM298 141c8 0 14 -3 20 -7s10 -11 10 -19s-4 -15 -10 -19
s-12 -6 -20 -6s-15 2 -21 6s-10 11 -10 19s4 15 10 19s13 7 21 7zM298 120c-4 0 -7 -1 -9 -2s-2 -2 -2 -3s0 -1 2 -2s5 -3 9 -3s6 2 8 3s2 1 2 2s0 2 -2 3s-4 2 -8 2z" />
    <glyph glyph-name="uniF113" unicode="&#xf113;" horiz-adv-x="519" 
d="M391 447h1v0h1c2 0 5 -1 7 -3l112 -112l7 -7l-7 -7l-112 -112c-2 -2 -5 -3 -8 -3c-6 0 -10 4 -10 10c0 3 2 6 4 8l94 94h-466h-1c-6 0 -10 4 -10 10c0 5 5 10 10 10v0h1h466l-94 94c-2 2 -3 6 -3 8c0 5 3 9 8 10zM124 181h2c6 0 10 -4 10 -10c0 -2 -1 -6 -3 -8l-94 -94
h466v0c6 0 11 -4 11 -10s-5 -10 -11 -10v0h-466l94 -94c2 -2 4 -5 4 -8c0 -6 -4 -11 -10 -11c-3 0 -6 2 -8 4l-112 112l-7 7l7 7l112 112c1 1 3 3 5 3z" />
    <glyph glyph-name="uniF14D" unicode="&#xf14d;" 
d="M174 428c34 0 62 -28 62 -62c0 -20 -11 -39 -26 -50c24 -12 41 -33 45 -60c4 27 21 48 45 60c-15 11 -25 30 -25 50c0 34 27 62 61 62s61 -28 61 -62c0 -20 -10 -39 -25 -50c8 -4 17 -9 23 -16c8 3 16 5 25 5c39 0 72 -33 72 -72c0 -25 -13 -47 -33 -60
c31 -15 53 -46 53 -83v-46v-1c0 -3 -2 -6 -4 -8c0 0 -7 -5 -21 -9s-35 -8 -67 -8s-53 4 -67 8c-2 1 -3 1 -5 2v-46v0c0 -3 -2 -6 -4 -8c0 0 -7 -6 -21 -10s-35 -8 -67 -8s-53 4 -67 8s-21 10 -21 10c-2 2 -4 5 -4 8v0v46c-2 -1 -3 -1 -5 -2c-14 -4 -35 -8 -67 -8
s-53 4 -67 8s-21 9 -21 9c-2 2 -4 5 -4 8v1v46c0 37 22 68 53 83c-20 13 -33 35 -33 60c0 39 33 72 72 72c8 0 17 -2 24 -5c6 7 14 12 22 16c-15 11 -25 30 -25 50c0 34 27 62 61 62zM174 407c-23 0 -41 -18 -41 -41s18 -41 41 -41s41 18 41 41s-18 41 -41 41zM336 407
c-23 0 -41 -18 -41 -41s18 -41 41 -41s41 18 41 41s-18 41 -41 41zM174 305c-15 0 -28 -6 -39 -15c17 -13 29 -34 29 -57c0 -25 -13 -47 -33 -60c31 -15 53 -46 53 -83v-5c9 11 20 20 33 26c-20 13 -33 36 -33 61c0 32 23 59 52 68v3c0 35 -27 62 -62 62zM336 305
c-35 0 -61 -27 -61 -62v-2c30 -8 53 -36 53 -69c0 -25 -13 -48 -33 -61c13 -6 24 -15 33 -26v5c0 37 22 68 53 83c-20 13 -33 35 -33 60c0 23 11 44 28 57c-11 10 -24 15 -40 15zM92 284c-28 0 -51 -23 -51 -51s23 -51 51 -51s51 23 51 51c0 20 -12 38 -29 46
c-7 3 -14 5 -22 5zM420 284c-7 0 -14 -1 -20 -4h-1l-1 -1c-1 -1 -3 -2 -4 -2v0c-15 -9 -25 -25 -25 -44c0 -28 23 -51 51 -51s51 23 51 51s-23 51 -51 51zM256 223c-28 0 -51 -23 -51 -51s23 -52 51 -52s51 24 51 52s-23 51 -51 51zM92 161c-39 0 -72 -32 -72 -71v-40
c2 -1 3 -1 11 -4c12 -4 31 -8 61 -8s49 4 61 8c8 3 9 3 11 4v40c0 39 -33 71 -72 71zM420 161c-39 0 -72 -32 -72 -71v-40c2 -1 3 -1 11 -4c12 -4 31 -8 61 -8s49 4 61 8c8 3 9 3 11 4v40c0 39 -33 71 -72 71zM256 100c-39 0 -72 -33 -72 -72v-39c2 -1 3 -2 11 -5
c12 -4 31 -7 61 -7s49 3 61 7c8 3 9 4 11 5v39c0 39 -33 72 -72 72z" />
    <glyph glyph-name="uniF108" unicode="&#xf108;" horiz-adv-x="511" 
d="M195 448c87 0 161 -51 185 -122c76 -23 131 -88 131 -164c0 -47 -21 -88 -54 -119c5 -14 16 -27 27 -36c6 -5 12 -10 17 -14c2 -2 4 -4 6 -7s3 -8 2 -13l-1 -4l-3 -2c-21 -12 -51 -6 -80 2c-28 7 -53 18 -67 24c-13 -2 -27 -4 -41 -4c-82 0 -152 46 -180 111
c-14 -6 -31 -13 -51 -18c-14 -4 -29 -7 -43 -8s-26 0 -37 6l-3 2l-2 4c-1 5 1 10 3 13s5 5 7 7c5 4 11 9 17 14c11 9 21 20 26 35c-33 31 -54 73 -54 120c0 96 89 173 195 173zM195 428c-96 0 -175 -69 -175 -153c0 -43 20 -82 53 -110l5 -4l-2 -6c-5 -24 -21 -40 -35 -51
c-4 -3 -8 -5 -11 -8c4 0 7 -2 12 -2c11 1 24 3 38 7c21 6 41 14 55 20c1 1 4 3 6 3h1c1 1 5 1 6 2l3 1l3 -1c12 -3 26 -4 40 -4c96 0 174 69 174 153s-77 153 -173 153zM386 303c2 -9 2 -19 2 -28c0 -23 -5 -44 -14 -64c3 -2 5 -5 5 -9c0 -6 -4 -10 -10 -10c-1 0 -3 1 -4 1
c-5 -8 -11 -16 -17 -23c-1 -4 -3 -7 -7 -8c-7 -7 -16 -15 -24 -21v0c0 -6 -4 -10 -10 -10c-2 0 -3 0 -4 1c-8 -5 -16 -8 -24 -12c4 -1 8 -5 8 -10c0 -6 -5 -10 -11 -10s-10 4 -10 10c0 2 1 4 2 5c-14 -5 -29 -9 -45 -11c-2 -2 -5 -4 -8 -4s-5 0 -7 2h-14c-11 0 -22 1 -32 3
c-1 -1 -2 -3 -4 -4c5 -10 11 -19 18 -28c-1 2 -2 4 -2 6c0 6 4 11 10 11s11 -5 11 -11s-5 -10 -11 -10c-3 0 -4 1 -6 3c8 -10 17 -19 27 -27v4c0 6 4 10 10 10s10 -4 10 -10c0 -5 -4 -11 -9 -11c7 -5 15 -8 23 -12c2 1 5 2 7 2c5 0 9 -3 10 -8c14 -5 29 -8 44 -9
c-2 2 -3 4 -3 7c0 6 4 10 10 10s10 -4 10 -10c0 -3 -1 -6 -4 -8h4c13 0 28 2 41 4h1c-1 1 -1 3 -1 4c0 6 5 10 11 10s10 -4 10 -10c0 -4 -3 -7 -6 -9c14 -6 36 -15 58 -21c7 -2 13 -3 20 -4v3c0 6 4 10 10 10c1 0 3 0 4 -1c-12 11 -25 26 -30 46l-2 6l5 4c25 21 42 49 49 80
c-3 2 -6 5 -6 9c0 5 4 9 9 10c0 4 1 7 1 11c0 11 -2 22 -4 32c-3 2 -6 4 -6 8c0 2 1 4 2 5c-3 9 -7 17 -12 25c0 -5 -5 -9 -10 -9c-6 0 -10 4 -10 10s4 10 10 10c1 0 3 0 4 -1c-14 20 -33 37 -56 50c-1 -4 -5 -8 -10 -8c-6 0 -10 4 -10 10c0 2 1 4 2 6c-2 1 -3 2 -5 3z
M430 274c6 0 10 -4 10 -10s-4 -11 -10 -11s-10 5 -10 11s4 10 10 10zM399 243c6 0 11 -4 11 -10s-5 -10 -11 -10s-10 4 -10 10s4 10 10 10zM430 212c6 0 10 -4 10 -10s-4 -10 -10 -10s-10 4 -10 10s4 10 10 10zM399 182c6 0 11 -4 11 -10s-5 -11 -11 -11s-10 5 -10 11
s4 10 10 10zM461 182c6 0 10 -4 10 -10s-4 -11 -10 -11s-10 5 -10 11s4 10 10 10zM369 151c6 0 10 -4 10 -10s-4 -10 -10 -10s-11 4 -11 10s5 10 11 10zM430 151c6 0 10 -4 10 -10s-4 -10 -10 -10s-10 4 -10 10s4 10 10 10zM338 120c6 0 10 -4 10 -10s-4 -10 -10 -10
s-10 4 -10 10s4 10 10 10zM399 120c6 0 11 -4 11 -10s-5 -10 -11 -10s-10 4 -10 10s4 10 10 10zM461 120c6 0 10 -4 10 -10s-4 -10 -10 -10s-10 4 -10 10s4 10 10 10zM246 90c6 0 10 -5 10 -11s-4 -10 -10 -10s-10 4 -10 10s4 11 10 11zM307 90c6 0 10 -5 10 -11
s-4 -10 -10 -10s-10 4 -10 10s4 11 10 11zM369 90c6 0 10 -5 10 -11s-4 -10 -10 -10s-11 4 -11 10s5 11 11 11zM430 90c6 0 10 -5 10 -11s-4 -10 -10 -10s-10 4 -10 10s4 11 10 11zM276 59c6 0 11 -4 11 -10s-5 -11 -11 -11s-10 5 -10 11s4 10 10 10zM338 59
c6 0 10 -4 10 -10s-4 -11 -10 -11s-10 5 -10 11s4 10 10 10zM399 59c6 0 11 -4 11 -10s-5 -11 -11 -11s-10 5 -10 11s4 10 10 10zM430 28c6 0 10 -4 10 -10s-4 -10 -10 -10s-10 4 -10 10s4 10 10 10zM469 -7c1 -2 2 -4 2 -6s0 -3 -1 -4h11c-3 3 -7 5 -11 9z" />
    <glyph glyph-name="uniF136" unicode="&#xf136;" horiz-adv-x="471" 
d="M273 428h10h152c20 0 36 -16 36 -36v-153c0 -7 0 -13 -1 -20s-3 -15 -9 -21l-233 -233c-11 -11 -30 -11 -41 0l-178 178c-11 11 -11 31 0 42l232 233c6 6 14 8 21 9c4 0 8 1 11 1zM273 407c-3 0 -6 -1 -8 -1c-5 -1 -7 -1 -9 -3l-233 -232c-4 -4 -4 -10 0 -14l177 -176
l1 -1c4 -4 9 -4 13 0l233 232c2 2 2 4 3 9s1 11 1 18v153c0 9 -7 15 -16 15h-152h-10zM379 376c22 0 41 -19 41 -41c0 -23 -19 -41 -41 -41c-23 0 -41 18 -41 41c0 22 18 41 41 41zM379 356c-11 0 -21 -10 -21 -21s10 -20 21 -20s20 9 20 20s-9 21 -20 21z" />
    <glyph glyph-name="uniF123" unicode="&#xf123;" horiz-adv-x="510" 
d="M253 447l2 1c2 0 5 -2 7 -4l245 -255c2 -2 3 -5 3 -7c0 -6 -4 -10 -10 -10c-2 0 -6 1 -8 3l-32 34v-263v-10h-10h-390h-10v10v263l-32 -34c-2 -2 -6 -3 -8 -3c-6 0 -10 4 -10 10c0 2 1 5 3 7l245 255c1 1 3 3 5 3zM255 422l-184 -192v-274h112v205v11h11h122h11v-11v-205
h112v274zM357 397h62v-95l-21 21v53h-20v-31l-21 21v31zM204 151v-195h102v195h-102z" />
    <glyph glyph-name="uniF106" unicode="&#xf106;" 
d="M113 448h20c5 0 11 -2 15 -6s6 -9 6 -14v-21h204v21c0 5 2 10 6 14s10 6 15 6h20c5 0 11 -2 15 -6s6 -9 6 -14v-21h72c5 0 10 -2 14 -6s6 -9 6 -14v-431c0 -5 -2 -10 -6 -14s-9 -6 -14 -6h-472c-5 0 -10 2 -14 6s-6 9 -6 14v431c0 5 2 10 6 14s9 6 14 6h72v21
c0 5 2 10 6 14s10 6 15 6zM113 428v-62h20v62h-20zM379 428v-62h20v62h-20zM20 387v-82h472v82h-72v-21c0 -5 -2 -11 -6 -15s-10 -5 -15 -5h-20c-5 0 -11 1 -15 5s-6 10 -6 15v21h-204v-21c0 -5 -2 -11 -6 -15s-10 -5 -15 -5h-20c-5 0 -11 1 -15 5s-6 10 -6 15v21h-72z
M20 284v-328h472v328h-472zM70 233v0h1v0h1h368c6 0 11 -4 11 -10v-215c0 -6 -5 -11 -11 -11h-133h-235c-6 0 -11 5 -11 11v215v0c0 5 4 9 9 10zM82 212v-51h72v51h-72zM174 212v-51h72v51h-72zM266 212v-51h72v51h-72zM358 212v-51h72v51h-72zM82 141v-51h72v51h-72z
M174 141v-51h72v51h-72zM266 141v-51h72v51h-72zM358 141v-51h72v51h-72zM82 69v-51h72v51h-72zM174 69v-51h72v51h-72zM266 69v-51h41h31v51h-72zM358 69v-51h72v51h-72z" />
    <glyph glyph-name="uniF131" unicode="&#xf131;" horiz-adv-x="399" 
d="M0 397h10h62h10v-10v-62v-10h-10h-62h-10v10v62v10zM123 387h276v-21h-276v21zM20 376v-41h41v41h-41zM123 346h235v-21h-235v21zM0 233h10h62h10v-10v-62v-10h-10h-62h-10v10v62v10zM123 223h276v-21h-276v21zM20 212v-40h41v40h-41zM123 182h235v-21h-235v21zM0 69h10
h62h10v-10v-62v-10h-10h-62h-10v10v62v10zM123 59h276v-21h-276v21zM20 49v-41h41v41h-41zM123 18h235v-21h-235v21z" />
    <glyph glyph-name="uniF142" unicode="&#xf142;" horiz-adv-x="513" 
d="M256 418h1c1 0 1 -1 2 -1c45 0 88 -12 125 -33c1 0 3 -2 4 -3c36 -22 67 -52 89 -88c3 -2 5 -5 5 -8c20 -36 31 -77 31 -121v-1v0v-2v-1v-1c0 -45 -12 -88 -33 -125c0 -1 -2 -2 -3 -3c-2 -4 -4 -8 -7 -12c-2 -2 -5 -5 -8 -5c-6 0 -11 5 -11 11c0 2 1 4 2 5s2 4 3 5
l-18 10c-3 2 -5 6 -5 9c0 5 4 9 9 10h1c2 0 5 0 6 -1l17 -11c15 30 24 64 26 99h-20v0c-6 0 -10 4 -10 10c0 5 4 11 9 11h1v0h20c-2 35 -11 68 -26 98l-17 -10c-1 -1 -4 -2 -6 -2c-6 0 -10 5 -10 11c0 3 2 7 5 9l18 10c-18 29 -43 54 -72 72l-10 -18c-2 -3 -6 -5 -9 -5
c-6 0 -11 5 -11 11c0 2 1 4 2 5l10 17c-30 15 -64 24 -99 26v-20v0c0 -6 -4 -10 -10 -10s-10 4 -10 10v0v20c-36 -2 -69 -11 -99 -26l11 -17c1 -1 1 -3 1 -5c0 -6 -4 -11 -10 -11c-3 0 -7 2 -9 5l-11 18c-29 -18 -54 -43 -72 -72l18 -10c3 -2 5 -6 5 -9c0 -6 -4 -11 -10 -11
c-2 0 -4 1 -5 2l-18 10c-15 -30 -24 -62 -26 -98h20v0c6 0 11 -5 11 -11s-5 -10 -11 -10v0h-20c2 -35 11 -69 26 -99l18 11c1 1 2 1 3 1h1h2c6 0 10 -4 10 -10c0 -4 -3 -8 -6 -9l-17 -10c1 -1 1 -4 2 -5c1 -2 3 -4 3 -6c0 -6 -4 -10 -10 -10c-4 0 -8 2 -10 5
c-3 4 -5 8 -7 12c-1 1 -2 3 -2 4c-20 36 -32 77 -33 121c-1 1 -2 4 -2 6c0 1 0 3 1 4c1 44 13 84 33 120c0 2 2 5 3 6c22 37 53 67 90 89c1 1 3 3 5 3c36 21 78 33 123 33v0v0zM418 257l2 -4l-112 -91v-1c0 -28 -23 -51 -51 -51s-51 23 -51 51s23 51 51 51c10 0 20 -3 28 -8
zM257 192c-17 0 -31 -14 -31 -31s14 -30 31 -30s31 13 31 30s-14 31 -31 31zM153 38v0h1v0h1h205c6 0 10 -4 10 -10v-41c0 -6 -4 -10 -10 -10h-205c-6 0 -10 4 -10 10v41v0c0 5 3 9 8 10zM165 18v-21h184v21h-184z" />
    <glyph glyph-name="uniF128" unicode="&#xf128;" 
d="M0 371h512v-51h-512v51zM0 218h512v-52h-512v52zM0 64h512v-51h-512v51z" />
    <glyph glyph-name="uniF13E" unicode="&#xf13e;" 
d="M411 448h1c1 0 3 -1 4 -1l29 -11c4 -1 6 -6 6 -10v-2l-7 -32c4 -3 8 -7 11 -11l31 8h3c4 0 8 -2 9 -6l13 -29v-4c0 -3 -1 -7 -4 -9l-28 -17c0 -5 1 -11 1 -16l27 -16c3 -2 5 -6 5 -9c0 -1 -1 -3 -1 -4l-11 -29c-1 -4 -6 -7 -10 -7c-1 0 -1 1 -2 1l-32 6
c-3 -4 -7 -8 -11 -11l8 -31v-2c0 -4 -3 -9 -6 -10l-29 -12c-1 0 -3 -1 -4 -1c-3 0 -7 2 -9 5l-17 27h-16l-17 -27c-2 -3 -6 -5 -9 -5c-1 0 -3 1 -4 1l-29 12c-3 1 -6 5 -6 9v2l7 31c-4 3 -8 7 -11 11l-31 -7h-2c-4 0 -9 3 -10 6l-12 29c0 1 -1 3 -1 4c0 3 2 7 5 9l27 17v16
l-27 17c-3 2 -5 5 -5 8c0 1 1 3 1 4l12 29c1 4 5 7 9 7h2l31 -8c3 4 7 9 11 12l-7 31v2c0 4 2 9 6 10l29 12c1 0 3 1 4 1c3 0 7 -2 9 -5l17 -27h16l16 27c1 2 5 5 8 5zM416 425l-15 -25c-2 -3 -6 -5 -9 -5l-1 1c-8 1 -16 1 -24 0l-2 -1c-3 0 -7 2 -9 5l-15 24l-13 -5l6 -28
c0 -1 1 -1 1 -2c0 -3 -2 -7 -4 -9c-6 -5 -12 -10 -17 -17c-2 -2 -6 -4 -9 -4h-2l-28 6l-5 -13l24 -15c3 -2 5 -6 5 -9v-1c-1 -8 -1 -16 0 -24v-2c0 -3 -2 -7 -5 -9l-24 -15l6 -13l28 6c1 0 1 1 2 1c3 0 6 -2 8 -4c5 -6 11 -12 18 -17c2 -2 4 -5 4 -8c0 -1 -1 -2 -1 -3
l-6 -28l13 -5l16 24c2 3 6 5 9 5h1c8 -1 16 0 24 1h1c3 0 7 -2 9 -5l16 -25l13 6l-7 28v2c0 3 2 7 4 9c6 5 11 10 16 17c2 2 6 4 9 4h2l29 -6l5 12l-25 16c-3 2 -5 6 -5 9v1c1 8 1 16 0 24v1c0 3 2 7 5 9l24 16l-5 13l-28 -7h-3c-3 0 -6 2 -8 4c-5 6 -10 12 -17 17
c-2 2 -4 5 -4 8v2l6 29zM379 367c7 0 13 0 20 -3c27 -11 40 -41 29 -68s-41 -40 -68 -29s-40 41 -29 68c8 20 28 32 48 32zM379 347c-4 0 -8 0 -12 -2c-7 -3 -14 -10 -17 -18c-7 -16 1 -34 17 -41s35 1 42 17s-2 35 -18 42c-4 2 -8 2 -12 2zM147 274v0h1v0h1h39h1
c5 0 9 -4 10 -9l7 -41c7 -2 14 -5 21 -9l34 25c1 1 4 2 6 2s5 -1 7 -3l28 -28c2 -2 3 -6 3 -8s-1 -5 -2 -6l-24 -34c3 -7 6 -14 8 -21l42 -7c5 -1 9 -5 9 -10v-40v0c0 -5 -3 -9 -8 -10l-42 -7c-2 -7 -6 -14 -9 -21l25 -34c1 -1 2 -4 2 -6s-1 -5 -3 -7l-28 -28
c-2 -2 -6 -3 -8 -3s-5 1 -6 2l-34 24c-7 -4 -14 -7 -21 -9l-7 -42c-1 -5 -5 -8 -10 -8h-1h-39v0c-5 0 -9 4 -10 9l-7 41c-7 2 -14 5 -21 9l-35 -24c-1 -1 -4 -2 -6 -2s-5 1 -7 3l-28 28c-2 2 -3 5 -3 7s1 5 2 6l25 34c-4 7 -7 13 -9 21l-42 7c-5 1 -8 5 -8 10v0v40
c0 5 4 9 9 10l41 7c2 7 5 14 9 21l-24 34c-1 1 -2 4 -2 6s1 6 3 8l28 28c2 2 5 3 7 3s5 -1 6 -2l34 -25c7 4 14 7 21 9l7 41c1 4 4 8 8 9zM158 253l-7 -38c-1 -4 -3 -7 -7 -8c-10 -3 -20 -7 -29 -12c-1 -1 -3 -1 -5 -1s-5 1 -6 2l-32 22l-16 -16l22 -31c1 -1 2 -4 2 -6
s0 -5 -1 -6c-5 -9 -9 -19 -12 -29c-1 -4 -4 -6 -8 -7l-39 -7v-22l39 -7c4 -1 7 -3 8 -7c3 -10 7 -20 12 -29c1 -1 1 -4 1 -6s-1 -5 -2 -6l-22 -31l16 -16l32 22c1 1 4 2 6 2c1 0 4 0 5 -1c9 -5 18 -9 28 -12c4 -1 7 -4 8 -8l6 -39h23l7 39c1 4 3 7 7 8c10 3 20 7 29 12
c1 1 3 2 5 2s5 -1 6 -2l32 -23l16 16l-23 32c-1 2 -2 4 -2 6s1 4 2 5c5 9 8 19 11 29c1 4 5 6 9 7l38 7v22l-38 7c-4 1 -8 3 -9 7c-3 10 -6 20 -11 29c-1 1 -2 3 -2 5s1 5 2 6l23 32l-16 16l-32 -23c-1 -1 -4 -2 -6 -2s-4 1 -5 2c-9 5 -19 9 -29 12c-4 1 -6 4 -7 8l-7 38
h-22zM169 168c35 0 63 -28 63 -63s-28 -63 -63 -63s-63 28 -63 63s28 63 63 63zM169 148c-24 0 -43 -19 -43 -43s19 -43 43 -43s43 19 43 43s-19 43 -43 43z" />
    <glyph glyph-name="uniF147" unicode="&#xf147;" 
d="M20 448h472c11 0 20 -9 20 -20v-472c0 -11 -9 -20 -20 -20h-472c-11 0 -20 9 -20 20v472c0 11 9 20 20 20zM20 428v-62h472v62h-472zM20 346v-390h472v390h-472zM60 315v0v0h1v0h390c6 0 10 -4 10 -10v-62c0 -6 -4 -10 -10 -10h-390c-6 0 -10 4 -10 10v62v0c0 5 4 9 9 10
zM72 294v-41h368v41h-368zM72 202h153c11 0 21 -9 21 -20v-185c0 -11 -10 -20 -21 -20h-153c-11 0 -21 9 -21 20v185c0 11 10 20 21 20zM287 202h153c11 0 21 -9 21 -20v-185c0 -11 -10 -20 -21 -20h-153c-11 0 -21 9 -21 20v185c0 11 10 20 21 20zM72 182v-185h153v185
h-153zM287 182v-185h153v185h-153z" />
    <glyph glyph-name="uniF110" unicode="&#xf110;" 
d="M255 448c12 0 23 -4 30 -11c10 -2 18 -7 23 -14c5 -8 7 -16 8 -25c1 -14 -1 -28 -4 -37c2 -4 5 -9 4 -15c-1 -7 -4 -13 -7 -17c-1 -2 -3 -2 -5 -3c-1 -6 -2 -11 -4 -16c-1 -3 -3 -6 -5 -8c0 -1 -2 -1 -2 -1c0 -6 1 -11 1 -17c1 -3 4 -5 9 -8c6 -3 13 -7 22 -11
c14 -7 30 -18 38 -38c3 2 8 4 9 6c0 6 1 11 1 17c0 0 -2 0 -2 1c-2 2 -3 5 -5 8c-2 5 -3 10 -4 16c-2 1 -5 1 -6 3c-3 4 -5 10 -6 17s1 12 4 16c-5 20 -6 39 1 55c8 18 27 31 54 31c12 0 22 -4 29 -11c10 -2 19 -7 24 -14c5 -8 7 -16 8 -25c1 -14 -1 -28 -4 -37
c2 -4 4 -9 3 -15c-1 -7 -3 -13 -6 -17c-1 -2 -3 -2 -5 -3c-1 -6 -3 -11 -5 -16c-1 -3 -3 -6 -5 -8c0 -1 -1 -1 -1 -1v-17c1 -3 4 -6 9 -9s13 -6 21 -10c16 -8 33 -23 35 -52v0v-1v-112v-2c0 0 -5 -21 -25 -45s-55 -50 -116 -65c-1 0 -1 -1 -2 -1c-6 0 -11 5 -11 11v0v9v0
c-1 11 -5 18 -10 24c-6 6 -13 11 -22 15s-19 7 -28 12s-18 10 -22 21v3c-1 10 -1 17 -1 26v0c0 3 3 7 5 9c0 0 1 0 1 1c1 1 2 4 3 6c2 5 5 10 5 15c0 4 4 8 8 9c0 1 1 3 2 8v3c-2 2 -4 6 -4 9v3c2 8 6 24 5 38c-1 7 -1 12 -4 16s-7 6 -14 7c-3 0 -7 4 -8 6s-7 5 -18 5h-1
c-24 -1 -34 -8 -39 -20s-5 -32 1 -53v-3c0 -3 -2 -6 -4 -8c0 0 -1 -1 -1 -3c1 -5 3 -7 3 -8v0c4 -1 8 -5 8 -9s3 -10 5 -15c1 -2 2 -4 3 -5s3 -2 1 -1c3 -2 5 -6 5 -9v-1c0 -9 1 -16 0 -26c0 -1 -1 -2 -1 -3c-4 -11 -13 -16 -22 -21s-19 -8 -28 -12s-16 -9 -22 -15
s-9 -13 -10 -24v0v-9v0c0 -6 -5 -11 -11 -11c-1 0 -1 1 -2 1c-61 15 -96 41 -116 65s-25 45 -25 45v2v112v1v0c2 29 19 44 35 52c8 4 16 7 21 10s8 6 9 9v17c0 0 -1 0 -1 1c-2 2 -4 5 -5 8c-2 5 -4 10 -5 16c-2 1 -4 1 -5 3c-3 4 -5 10 -6 17c-1 6 1 11 3 15
c-3 9 -5 22 -4 37c1 9 3 17 8 25c5 7 14 12 24 14c7 7 17 11 29 11c27 0 46 -13 54 -31c7 -16 6 -35 1 -55c3 -4 5 -9 4 -16s-3 -13 -6 -17c-1 -2 -4 -2 -6 -3c-1 -6 -2 -11 -4 -16c-2 -3 -3 -6 -5 -8c0 -1 -2 -1 -2 -1c0 -6 1 -11 1 -17c1 -2 6 -4 9 -6c8 20 24 31 38 38
c9 4 17 8 23 11c5 3 8 5 9 8v17c0 0 -1 0 -1 1c-2 2 -3 5 -5 8c-2 5 -4 10 -5 16c-2 1 -4 1 -5 3c-3 4 -6 10 -7 17s1 12 4 16c-5 20 -6 40 1 56c8 18 27 30 54 30zM255 427c-22 0 -30 -7 -35 -18s-4 -27 1 -47v-3c0 -3 -2 -6 -4 -8v-2c1 -5 2 -7 2 -7c4 -1 8 -5 8 -9
s2 -10 4 -14c1 -2 2 -4 3 -5l1 -1v0c2 -2 5 -5 5 -8v0c0 -8 0 -15 -1 -25c0 -1 -1 -1 -1 -2c-4 -9 -10 -16 -18 -20s-16 -7 -24 -11c-15 -8 -27 -16 -31 -38c-1 -5 -5 -8 -10 -8c-1 0 -3 1 -4 1c-12 5 -26 11 -31 25c0 1 -1 1 -1 2c-1 10 0 16 0 24c0 3 2 7 5 9
c-2 -1 -1 0 0 1s2 3 3 5c2 4 5 10 5 14s3 8 7 9c0 0 1 2 2 7v2c-2 2 -4 5 -4 8v2c5 20 6 37 1 48s-13 18 -35 18v0c-10 0 -16 -3 -17 -4c-1 -2 -4 -5 -7 -5c-7 -1 -10 -4 -12 -7s-5 -8 -5 -14c-1 -12 3 -28 5 -35c0 -1 1 -2 1 -3c0 -3 -2 -6 -4 -8c0 0 -1 -1 -1 -2
c1 -5 3 -7 3 -7c4 -1 7 -5 7 -9s2 -10 4 -14c1 -2 2 -4 3 -5l1 -1v0c2 -2 5 -5 5 -8v-1c0 -8 0 -14 -1 -24c0 -1 -1 -1 -1 -2c-4 -9 -11 -17 -18 -21s-14 -6 -21 -10c-13 -7 -24 -14 -25 -35v0v-111c0 -1 4 -16 20 -35s45 -41 94 -55c2 14 7 27 15 35c9 9 19 14 29 18
s20 8 27 12c7 3 9 7 11 10c1 7 1 12 1 19c0 0 -2 0 -2 1c-2 3 -3 6 -5 9c-3 5 -5 11 -6 17c-2 1 -4 1 -5 3c-4 5 -6 11 -7 19c-1 7 1 12 4 16c-5 22 -7 43 1 61c8 19 29 31 58 32c13 0 24 -3 32 -11c11 -2 20 -8 25 -15c6 -8 8 -18 9 -27c1 -16 -2 -30 -5 -40
c3 -4 5 -9 4 -16c-1 -8 -3 -14 -7 -19c-1 -2 -3 -2 -5 -3c-1 -6 -4 -12 -6 -17c-2 -3 -3 -6 -5 -9c0 -1 -1 0 -1 -1c0 -7 -1 -12 0 -19c2 -3 5 -7 12 -10c7 -4 16 -8 26 -12s20 -9 29 -18c8 -8 13 -21 15 -35c49 14 78 36 94 55s20 34 20 35v111v0c-1 21 -12 28 -25 35
c-7 4 -14 6 -21 10s-14 12 -18 21c0 1 -1 1 -1 2c-1 10 -1 16 -1 24c0 3 3 7 6 9c-2 -1 -1 0 0 1s2 3 3 5c2 4 4 10 4 14s3 8 7 9c0 0 2 2 3 7c0 1 -1 2 -1 2c-2 2 -4 5 -4 8c0 1 1 2 1 3c2 7 6 23 5 35c0 6 -3 11 -5 14s-5 6 -12 7c-3 0 -6 3 -7 5c-1 1 -7 4 -17 4v0
c-22 0 -30 -7 -35 -18s-4 -28 1 -48v-2c0 -3 -2 -6 -4 -8v-2c1 -5 2 -7 2 -7c4 -1 7 -5 7 -9s3 -10 5 -14c1 -2 2 -4 3 -5v-1h1c2 -2 4 -5 4 -8v-1c0 -8 1 -14 0 -24c0 -1 -1 -1 -1 -2c-5 -14 -19 -20 -31 -25c-1 0 -3 -1 -4 -1c-5 0 -9 3 -10 8c-4 22 -16 30 -31 38
c-8 4 -16 7 -24 11s-14 11 -18 20c0 1 -1 1 -1 2c-1 10 0 17 0 25c0 3 2 7 5 9c-2 -1 -1 -1 0 0s2 3 3 5c2 4 4 10 4 14s4 8 8 9c0 0 1 2 2 7v2c-2 2 -4 5 -4 8v3c2 7 6 23 5 35c0 6 -2 11 -4 14s-5 6 -12 7c-3 0 -7 3 -8 5c-1 1 -6 4 -16 4h-1z" />
    <glyph glyph-name="uniF12C" unicode="&#xf12c;" horiz-adv-x="451" 
d="M0 417h10h430h11v-10v-328v-4l-3 -3l-103 -102l-3 -3h-4h-328h-10v10v430v10zM20 397v-410h308v92v11h10h92v307h-410zM113 284h235v-20h-235v20zM113 223h235v-21h-235v21zM113 161h235v-20h-235v20zM348 69v-67l67 67h-67z" />
    <glyph glyph-name="uniF102" unicode="&#xf102;" 
d="M206 448v0h1h56c5 0 9 -3 10 -8l11 -62c12 -4 23 -8 34 -14l51 36c1 1 4 2 6 2s5 -1 7 -3l40 -40c2 -2 3 -5 3 -7s-1 -5 -2 -6l-36 -51c6 -11 10 -22 14 -34l61 -10c5 -1 9 -5 9 -10v0v-56c0 -5 -4 -9 -9 -10l-60 -11c-1 -4 -3 -9 -5 -13h86c16 0 29 -13 29 -29v-11v0v-1
v-164c0 -6 -4 -10 -10 -10h-226c-6 0 -10 4 -10 10v32c-1 0 -2 -1 -3 -1h-56v0c-5 0 -9 4 -10 9l-10 61c-12 4 -24 8 -35 14l-50 -36c-1 -1 -4 -2 -6 -2s-5 1 -7 3l-40 40c-2 2 -3 5 -3 7s1 5 2 6l36 51c-6 11 -11 22 -15 34l-61 11c-5 1 -8 5 -8 10v56v0c0 5 4 9 9 10
l60 10c4 12 9 24 15 35l-36 50c-1 1 -2 4 -2 6s1 5 3 7l40 40c2 2 5 3 7 3s5 -1 6 -2l51 -36c11 6 22 11 34 14l10 61c1 4 5 9 9 9zM216 428l-10 -58c-1 -4 -4 -8 -8 -9c-15 -4 -29 -9 -42 -17c-1 -1 -3 -1 -5 -1s-5 1 -6 2l-47 34l-28 -28l34 -48c1 -1 2 -4 2 -6
s-1 -4 -2 -5c-8 -13 -14 -27 -18 -42c-1 -4 -4 -7 -8 -8l-58 -10v-39l58 -10c4 -1 7 -4 8 -8c4 -15 10 -29 18 -42c1 -1 1 -3 1 -5s-1 -5 -2 -6l-34 -47l28 -28l48 34c1 1 4 1 6 1s4 0 5 -1c13 -8 27 -13 42 -17c4 -1 7 -5 8 -9l10 -58h39l11 57v46v10v1v0v1v10
c0 4 1 8 3 12c-10 -4 -21 -7 -33 -7c-47 0 -86 38 -86 85s39 86 86 86s85 -39 85 -86c0 -24 -10 -45 -26 -61v0h80c3 9 8 19 9 24c1 4 4 7 8 8l59 10v39l-59 10c-4 1 -7 4 -8 8c-4 15 -10 28 -18 41c-1 1 -1 3 -1 5s1 5 2 6l34 49l-28 28l-48 -35c-1 -1 -3 -2 -5 -2
s-5 1 -6 2c-13 8 -27 13 -42 17c-3 1 -6 5 -7 8l-10 59h-39zM236 277c-36 0 -65 -29 -65 -65s29 -64 65 -64s64 28 64 64s-28 65 -64 65zM295 131c-5 0 -8 -4 -8 -9v-2h205v2c0 5 -4 9 -9 9h-96h-1c-1 0 -2 -1 -3 -1s-2 1 -3 1h-85zM287 100v-42v-3v-2v-97h205v144h-205z
M379 94l14 -15l-7 -7l-41 -41l-6 -7l-8 7l-20 17l-8 7l13 15l8 -6l13 -12l35 35zM379 43l14 -15l-7 -7l-41 -41l-6 -7l-8 7l-20 17l-8 7l13 15l8 -7l13 -11l35 35z" />
    <glyph glyph-name="uniF139" unicode="&#xf139;" horiz-adv-x="502" 
d="M502 438l-1 -11s-1 -76 -37 -148c-12 -23 -27 -46 -48 -67c-25 -25 -68 -62 -109 -96v-88v0c0 -3 -2 -6 -4 -8l-61 -51c-2 -1 -5 -2 -7 -2c-4 0 -9 3 -10 7l-15 62c-1 0 -5 -3 -5 -3l-1 -1l-2 -1h-7h-4l-38 -22s-2 -1 -3 -1h-4c-3 0 -6 0 -10 2c-8 4 -19 11 -35 27
s-23 27 -27 35c-2 4 -3 7 -3 10c0 1 1 3 1 4s1 4 1 4l22 37c0 2 -1 3 -1 4c0 3 1 7 1 7l1 2l1 1s3 4 3 5l-62 16c-4 1 -8 6 -8 10c0 2 2 4 3 6l51 61c1 2 5 4 7 4v0h1h87c33 40 70 83 96 109c21 21 45 37 68 49c73 36 148 37 148 37h11zM480 416c-15 -1 -69 -5 -128 -34
c-22 -11 -43 -25 -62 -44c-26 -26 -63 -70 -97 -110c-1 -1 -1 -2 -2 -3c-40 -48 -74 -90 -76 -93c0 -1 1 -4 2 -7c3 -8 11 -21 31 -41s33 -28 41 -31c3 -1 6 -1 7 -1c3 2 45 36 93 76c1 1 2 2 3 2c41 34 84 71 109 96c19 19 34 40 45 62c29 59 33 113 34 128zM348 335
c28 0 51 -23 51 -51s-23 -51 -51 -51s-51 23 -51 51s23 51 51 51zM348 315c-17 0 -31 -14 -31 -31s14 -31 31 -31s31 14 31 31s-14 31 -31 31zM97 223l-38 -45l56 -14c12 15 27 35 47 59h-65zM105 104l-13 -22s0 -1 1 -2c2 -4 8 -13 23 -28s24 -21 28 -23c1 -1 2 -1 2 -1
l22 14c-9 6 -21 14 -35 28s-22 25 -28 34zM286 99c-24 -20 -44 -36 -59 -48l14 -56l45 38v66zM65 57l12 -16c-20 -15 -35 -19 -43 -27c-4 -4 -6 -9 -9 -19c-2 -8 -3 -22 -4 -37c34 1 51 6 58 14c8 9 12 24 25 42l17 -12c-10 -14 -13 -30 -27 -44s-37 -22 -84 -22h-10v11
c0 23 1 40 4 53s9 22 16 29c14 13 28 15 45 28zM144 28l-1 -1v0z" />
    <glyph glyph-name="uniF116" unicode="&#xf116;" horiz-adv-x="501" 
d="M96 443l8 -7l160 -160l129 128l8 9c19 19 51 19 70 0s19 -52 0 -71l-8 -8l-354 -354c-1 -1 -3 -3 -4 -3l-77 -20c-1 0 -2 -1 -3 -1c-6 0 -10 5 -10 11v2l21 77c0 1 2 4 3 5l128 128l-160 160l-7 7l7 8l82 82zM96 413l-67 -67l153 -152l54 54l-13 13l13 13l-16 16l-24 -23
l-14 14l23 24l-16 16l-13 -13l-15 14l13 13l-16 16l-23 -23l-15 15l24 23l-16 16l-13 -13l-15 15l13 13zM407 390l-352 -352l42 -42l352 352zM343 196l151 -151l7 -7l-7 -8l-82 -82l-7 -7l-8 7l-151 152l15 14l144 -143l67 67l-6 6l-14 -13l-14 15l13 13l-16 16l-23 -23
l-15 14l23 24l-16 16l-13 -14l-15 15l13 13l-16 16l-23 -23l-15 15l24 23l-16 16l-13 -13l-15 15l20 20z" />
    <glyph glyph-name="uniF115" unicode="&#xf115;" horiz-adv-x="369" 
d="M144 428h82c17 0 30 -14 30 -31v-21h80h4h19v0c6 0 10 -4 10 -10s-4 -10 -10 -10v0h-10v-369c0 -17 -14 -31 -31 -31h-266c-17 0 -31 14 -31 31v369h-10h-1c-6 0 -10 4 -10 10c0 5 5 10 10 10v0h1h18c1 0 1 1 2 1s1 -1 2 -1h80v21c0 17 14 31 31 31zM144 407
c-6 0 -10 -4 -10 -10v-21h102v21c0 6 -4 10 -10 10h-82zM41 356v-369c0 -6 5 -10 11 -10h266c6 0 10 4 10 10v369h-287zM122 305h1c6 0 11 -4 11 -10v-1v-256v0c0 -6 -5 -10 -11 -10s-10 4 -10 10v0v256v1c0 5 4 9 8 10h1zM184 305h1c6 0 10 -4 10 -10v-1v-256v0
c0 -6 -4 -10 -10 -10s-10 4 -10 10v0v256v1c0 5 4 9 8 10h1zM245 305h1c6 0 10 -4 10 -10v-1v-256v0c0 -6 -4 -10 -10 -10s-10 4 -10 10v0v256v1c0 5 4 9 8 10h1z" />
    <glyph glyph-name="uniF129" unicode="&#xf129;" horiz-adv-x="430" 
d="M0 407h10h410h10v-10v-410v-10h-10h-410h-10v10v410v10zM20 387v-31h41v31h-41zM82 387v-185h266v185h-266zM369 387v-31h41v31h-41zM20 335v-30h41v30h-41zM369 335v-30h41v30h-41zM20 284v-31h41v31h-41zM369 284v-31h41v31h-41zM20 233v-31h41v31h-41zM369 233v-31h41
v31h-41zM20 182v-31h41v31h-41zM82 182v-185h266v185h-266zM369 182v-31h41v31h-41zM20 131v-31h41v31h-41zM369 131v-31h41v31h-41zM20 79v-30h41v30h-41zM369 79v-30h41v30h-41zM20 28v-31h41v31h-41zM369 28v-31h41v31h-41z" />
    <glyph glyph-name="uniF120" unicode="&#xf120;" horiz-adv-x="390" 
d="M52 417h286c28 0 52 -23 52 -51v-100v-2v-2v-150v-2v-2v-100c0 -28 -24 -52 -52 -52h-286c-28 0 -52 24 -52 52v99v3v3v148v3v3v99c0 28 24 51 52 51zM52 397c-17 0 -31 -14 -31 -31v-92h348v92c0 17 -14 31 -31 31h-286zM143 356h1c6 0 10 -4 10 -10v0c0 -3 1 -7 2 -8
s3 -3 8 -3h62c5 0 7 2 8 3s2 5 2 8v0c0 6 4 10 10 10s10 -4 10 -10v0c0 -7 -2 -15 -7 -21s-13 -10 -23 -10h-62c-10 0 -19 4 -24 10s-6 14 -6 21v0c0 5 4 9 8 10h1zM21 253v-133h348v133h-348zM143 192h1c6 0 10 -4 10 -10v0c0 -3 1 -7 2 -8s3 -2 8 -2h62c5 0 7 1 8 2
s2 5 2 8v0c0 6 4 10 10 10s10 -4 10 -10v0c0 -7 -2 -15 -7 -21s-13 -10 -23 -10h-62c-10 0 -19 4 -24 10s-6 14 -6 21v0c0 5 4 9 8 10h1zM21 100v-92c0 -17 14 -31 31 -31h286c17 0 31 14 31 31v92h-348zM143 49h1c6 0 10 -4 10 -10v-1c0 -3 1 -6 2 -7s3 -3 8 -3h62
c5 0 7 2 8 3s2 4 2 7v1c0 6 4 10 10 10s10 -4 10 -10v-1c0 -7 -2 -14 -7 -20s-13 -10 -23 -10h-62c-10 0 -19 4 -24 10s-6 13 -6 20v1c0 5 4 9 8 10h1z" />
    <glyph glyph-name="uniF13C" unicode="&#xf13c;" horiz-adv-x="451" 
d="M225 448c25 0 47 -14 78 -30s74 -36 140 -50l8 -2v-8c0 -304 -221 -418 -221 -418l-4 -2l-5 2s-56 26 -111 91s-110 170 -110 327v8l8 2c66 14 109 34 140 50s52 30 77 30zM225 428c-17 0 -36 -11 -68 -28c-31 -16 -74 -35 -136 -50c2 -147 53 -245 104 -306
c49 -58 94 -80 100 -83c13 7 200 111 204 389c-62 15 -104 34 -135 50c-32 17 -52 28 -69 28zM304 298l17 -11l-5 -8l-90 -140l-7 -10l-9 8l-63 58l-8 7l14 15l7 -7l55 -50l84 130z" />
    <glyph glyph-name="uniF118" unicode="&#xf118;" horiz-adv-x="471" 
d="M0 448h10h205h4l3 -3l144 -143l3 -3v-5v-122v-1c0 -6 -5 -10 -11 -10s-10 4 -10 10v1v112h-133h-10v10v134h-185v-451h154v0c6 0 10 -4 10 -10s-4 -11 -10 -11v0h-164h-10v11v471v10zM225 413v-108h108zM429 193c11 0 22 -4 30 -12c16 -16 16 -44 0 -60l-1 -1
c-1 -1 -2 -3 -3 -4l-162 -160c-1 -1 -4 -3 -5 -3l-61 -17h-3c-6 0 -10 4 -10 10v3l18 62c0 1 2 3 3 4l158 158h-1l7 8c8 8 19 12 30 12zM407 159l-156 -157v-1l30 -29l157 156z" />
    <glyph glyph-name="uniF105" unicode="&#xf105;" horiz-adv-x="493" 
d="M247 417c30 0 55 -21 60 -50c7 -2 14 -6 20 -9c24 -13 43 -35 43 -64c0 -18 -3 -34 -12 -47c3 0 5 1 8 1c6 0 13 0 18 -4s9 -10 11 -16c6 1 17 3 29 13c18 14 38 45 38 115v0v0v1v1v2l1 1l1 1v1c1 1 4 3 6 3h1v0c2 0 5 -1 7 -2l1 -1h1c0 -1 1 -1 1 -2v-1c0 -1 1 -1 1 -2
v-1v0v-1v0c0 -37 -6 -65 -14 -86c-2 -5 -4 -11 -6 -15s-5 -8 -8 -12s-5 -7 -8 -10s-6 -6 -9 -8s-5 -4 -8 -6s-6 -3 -9 -4s-5 -2 -8 -3c-5 -2 -9 -3 -13 -4c1 -11 1 -23 1 -41v-5h82c6 0 11 -5 11 -11s-5 -11 -11 -11h-84c-2 -18 -6 -36 -13 -53c10 -2 26 -7 43 -17
c27 -16 54 -45 54 -93v0c0 -6 -4 -10 -10 -10s-10 4 -10 10v0c0 40 -22 62 -45 75c-17 10 -33 14 -41 16c-4 -8 -9 -16 -15 -24c-26 -35 -64 -62 -113 -67h-1h-2c-49 5 -87 32 -113 67c-6 8 -11 16 -15 24c-8 -2 -24 -6 -41 -16c-23 -13 -44 -35 -44 -75v0
c0 -6 -5 -10 -11 -10s-10 4 -10 10v0c0 48 27 77 54 93c17 10 33 15 43 17c-7 17 -11 35 -13 53h-84v0c-6 0 -11 5 -11 11s4 11 10 11h1v0h82v5c0 17 0 31 1 42c-9 1 -24 5 -38 16c-23 19 -45 57 -45 131v0c0 5 4 9 8 10h1h2h2c1 -1 4 -2 5 -3v0s2 -1 2 -2v-2l1 -1v-1v0v-1
v0c0 -44 7 -72 17 -91c2 -4 5 -7 7 -10c4 -6 9 -10 13 -14c2 -2 4 -4 6 -5l6 -3c6 -3 11 -3 15 -4c0 1 1 1 1 2c2 7 4 13 10 17c4 3 9 4 14 4h5s5 -1 7 -1c-7 12 -10 27 -10 43c0 29 19 51 43 64c6 3 13 7 20 9c5 28 31 50 61 50zM247 397c-16 0 -31 -10 -38 -24
c12 2 26 4 38 4s24 -2 36 -4c-7 14 -20 24 -36 24zM247 355c-24 0 -51 -5 -71 -15s-31 -25 -31 -46c0 -23 5 -36 19 -45s40 -15 83 -15s68 6 82 15s19 22 19 45c0 21 -11 36 -31 46s-46 15 -70 15zM120 232h-1s-1 -2 -2 -6c-2 -9 -4 -28 -4 -59c0 -40 13 -80 36 -111
c21 -28 50 -50 87 -57v152v0c0 5 4 9 8 10c1 0 2 1 3 1c6 0 10 -5 10 -11v0v-152c37 7 66 29 87 57c23 31 36 71 36 111c0 29 -1 46 -4 54c-1 4 -2 5 -3 6s-2 1 -6 1c-7 0 -22 -4 -42 -8c-5 -1 -10 -2 -16 -3h-1c-17 -4 -36 -5 -61 -5c-29 0 -52 2 -70 7l-12 3
c-20 5 -34 9 -41 10h-4z" />
    <glyph glyph-name="uniF111" unicode="&#xf111;" 
d="M0 448h10h144h10v-10v-112v-4v-28v-10h-10h-144h-10v10v52v4v88v10zM20 428v-60l29 24l8 7l7 -8l27 -33l19 10l6 3l6 -5l21 -21v83h-123zM118 417c8 0 15 -7 15 -15s-7 -15 -15 -15s-16 7 -16 15s8 15 16 15zM212 407h1v0h1v0h1v0h287v0c6 0 10 -4 10 -10s-4 -10 -10 -10
v0h-287l-1 -1c-6 0 -11 5 -11 11c0 5 4 9 9 10zM55 370l-35 -30v-35h123v12l-30 29l-20 -10l-7 -3l-5 6zM212 346h1v0h1v0h1v0h287v0c6 0 10 -5 10 -11s-4 -10 -10 -10v0h-287h-1c-6 0 -11 4 -11 10c0 5 4 10 9 11zM0 274h10h144h10v-10v-144v-10h-10h-144h-10v10v144v10z
M20 253v-122h123v122h-123zM96 243c4 0 7 -1 11 -3c10 -6 12 -16 12 -23v-6c2 -2 3 -2 6 -5c5 -5 10 -13 7 -23c-3 -11 -11 -17 -18 -19c-3 -1 -3 -1 -5 -1c-1 -2 -1 -3 -2 -6c-2 -3 -4 -6 -7 -9s-8 -7 -14 -7c-5 0 -10 1 -13 3c-6 4 -10 9 -13 13c-5 0 -11 0 -18 4
c-4 2 -8 7 -10 12c-4 10 0 19 4 25c2 2 3 2 4 4c-1 2 -1 2 -2 5c-1 7 -1 18 7 26c6 6 15 7 21 6c4 -1 7 -2 10 -3c2 1 2 2 5 3c3 2 7 3 12 4h3zM212 233h1v0h1v0h1v0h287v0c6 0 10 -4 10 -10s-4 -11 -10 -11v0h-287h-1c-6 0 -11 5 -11 11c0 5 4 9 9 10zM95 222
c-1 0 -2 0 -4 -1c-3 -2 -7 -5 -7 -5l-6 -5l-6 4s-1 0 -2 1v0c-2 1 -5 3 -7 3s-3 0 -4 -1c-2 -2 -2 -3 -1 -6s2 -7 2 -7l4 -7l-6 -6s-3 -2 -5 -5s-3 -5 -2 -7l1 -1c2 -1 12 -1 12 -1l8 2l3 -8s6 -8 9 -10h1s-1 -1 0 0s2 2 3 4c2 4 3 8 3 8l1 7l8 1s3 1 7 2s6 3 6 4s-1 2 -3 4
s-5 4 -6 5l-8 4l2 8s1 3 1 7s-1 6 -2 6h-2zM89 212h2c6 -3 -8 -16 -8 -16s18 2 17 -5s-17 3 -17 3s7 -17 0 -18s-3 17 -3 17s-14 -12 -16 -6s15 8 15 8s-16 10 -11 14s13 -12 13 -12s3 14 8 15zM212 172h1v0h1v0h1v0h287v0c6 0 10 -5 10 -11s-4 -10 -10 -10v0h-287h-1
c-6 0 -11 4 -11 10c0 5 4 10 9 11zM0 100h10h144h10v-10v-144v-10h-10h-144h-10v10v144v10zM20 79v-123h123v123h-123zM82 66c0 0 7 -17 12 -20s22 6 22 6s-7 -16 -5 -23c1 -4 19 -11 19 -11s-18 -7 -20 -11c-2 -6 6 -23 6 -23s-18 8 -23 6s-11 -20 -11 -20s-8 17 -13 20
s-21 -6 -21 -6s7 16 5 23c-1 5 -19 11 -19 11s19 7 20 11c2 6 -6 23 -6 23s18 -8 23 -6s11 20 11 20zM212 59h1v0h1v0h1v0h287v0c6 0 10 -4 10 -10s-4 -11 -10 -11v0h-287h-1c-6 0 -11 5 -11 11c0 5 4 9 9 10zM82 33c-8 0 -15 -7 -15 -15s7 -15 15 -15s15 7 15 15
s-7 15 -15 15zM212 -3h1v0h1v0h1v0h287v0c6 0 10 -4 10 -10s-4 -10 -10 -10v0h-287h-1c-6 0 -11 4 -11 10c0 5 4 9 9 10z" />
    <glyph glyph-name="uniF145" unicode="&#xf145;" horiz-adv-x="451" 
d="M51 376h348c28 0 52 -23 52 -51v-266c0 -28 -24 -51 -52 -51h-348c-28 0 -51 23 -51 51v266c0 28 23 51 51 51zM51 356c-17 0 -31 -14 -31 -31v-266c0 -17 14 -31 31 -31h348c17 0 31 14 31 31v266c0 17 -14 31 -31 31h-348zM172 284h1v0h1c1 0 4 0 5 -1l144 -82
c3 -2 5 -6 5 -9s-2 -7 -5 -9l-144 -82c-1 -1 -3 -1 -5 -1c-6 0 -10 4 -10 10v0v164v0c0 5 3 9 8 10zM184 256v-128l113 64z" />
    <glyph glyph-name="uniF101" unicode="&#xf101;" horiz-adv-x="513" 
d="M204 444v0c22 0 42 -5 53 -19c17 -3 30 -12 38 -23c9 -12 12 -27 13 -42c2 -27 -4 -53 -9 -69c5 -6 8 -13 7 -24c-2 -13 -5 -22 -10 -28c-3 -3 -6 -4 -9 -6c-2 -11 -5 -21 -9 -30c-3 -5 -5 -10 -8 -14c-1 -2 -4 -3 -5 -4c0 -13 0 -24 1 -37c2 -5 6 -9 10 -12l-11 -17
c-10 6 -16 14 -19 23v1v2c-2 17 -1 29 -1 44v6l5 3c-1 -1 1 0 3 3s4 7 6 11c4 8 8 19 9 28l1 8l8 1s1 0 3 2s5 8 6 18c1 9 -3 11 -3 11l-7 4l2 8c4 13 12 42 10 67c-1 12 -4 23 -10 31s-14 14 -28 16h-5l-2 5c-4 7 -17 12 -38 12h-1c-43 -1 -62 -15 -72 -38s-9 -56 1 -93
l2 -8l-7 -4s-4 -2 -3 -11c1 -10 4 -16 6 -18l2 -2l9 -1l1 -8c1 -9 5 -20 9 -28c2 -4 4 -8 6 -11s4 -3 3 -3l6 -3v-6c0 -15 1 -27 -1 -44l-1 -2v-1c-6 -16 -19 -26 -34 -33s-32 -13 -48 -20s-31 -15 -42 -26c-9 -9 -14 -21 -17 -35h202h24l7 -20h-31h-215h-11l1 11
c2 25 11 44 25 58s32 24 49 31s34 14 47 20s20 12 23 20c1 13 1 24 1 37c-1 1 -3 2 -4 4c-3 4 -6 9 -9 14c-4 9 -7 19 -9 30c-3 2 -6 3 -9 6c-5 6 -8 15 -10 28c-1 12 2 19 7 25c-9 37 -12 73 1 102c13 30 43 49 91 50zM390 182c68 0 123 -55 123 -123s-55 -123 -123 -123
s-123 55 -123 123s55 123 123 123zM390 161c-57 0 -103 -45 -103 -102s46 -103 103 -103s102 46 102 103s-45 102 -102 102zM380 120h20v-51h51v-20h-51v-52h-20v52h-52v20h52v51z" />
    <glyph glyph-name="uniF11D" unicode="&#xf11d;" horiz-adv-x="516" 
d="M31 448h348c17 0 31 -14 31 -31v-82l-21 21v61c0 6 -4 11 -10 11h-348c-6 0 -11 -5 -11 -11v-450c0 -6 5 -11 11 -11h348c6 0 10 5 10 11v61l21 21v-82c0 -17 -14 -31 -31 -31h-348c-17 0 -31 14 -31 31v450c0 17 14 31 31 31zM388 314v0v0h1c2 0 6 -1 8 -3l111 -112
l8 -7l-8 -7l-111 -112c-2 -2 -5 -4 -8 -4c-6 0 -10 5 -10 11c0 3 1 6 3 8l94 94h-302v0c-6 0 -11 4 -11 10c0 5 5 10 10 10h1v0h302l-94 94c-2 2 -3 6 -3 8c0 5 4 9 9 10z" />
    <glyph glyph-name="uniF14B" unicode="&#xf14b;" 
d="M297 402c74 0 135 -61 135 -135c0 -3 -1 -5 -1 -7c45 -5 81 -42 81 -89c0 -50 -41 -92 -91 -92h-93v0c-6 0 -11 5 -11 11s5 10 11 10v0h93c39 0 71 32 71 71s-32 70 -71 70h-1c-6 0 -10 5 -10 11v1c1 5 1 9 1 14c0 63 -51 114 -114 114c-49 0 -91 -31 -107 -75
c-1 -4 -6 -6 -10 -6c-2 0 -5 1 -7 3c-9 9 -22 15 -36 15c-28 0 -52 -23 -52 -51v-3v0c0 -4 -3 -9 -7 -10c-33 -9 -58 -40 -58 -76c0 -43 35 -78 79 -78h85v0c6 0 11 -4 11 -10s-5 -11 -11 -11v0h-85c-55 0 -99 44 -99 99c0 43 28 78 66 92c2 38 33 68 71 68
c15 0 28 -6 40 -14c22 45 67 78 120 78zM256 227l7 -7l52 -51c2 -2 3 -6 3 -8c0 -6 -5 -10 -11 -10c-2 0 -5 1 -7 3l-34 34v-180v0c0 -6 -4 -11 -10 -11s-10 5 -10 11v0v180l-34 -34c-2 -2 -5 -3 -7 -3c-6 0 -11 4 -11 10c0 2 1 6 3 8l52 51z" />
    <glyph glyph-name="uniF130" unicode="&#xf130;" horiz-adv-x="369" 
d="M0 428h10h226h4l3 -3l123 -123l3 -3v-5v-327v-11h-11h-348h-10v11v450v11zM20 407v-430h328v307h-112h-11v10v11h-143v20h143v82h-205zM246 392v-87h87zM82 223h31v-21h-31v21zM154 223h133v-21h-133v21zM82 161h31v-20h-31v20zM154 161h133v-20h-133v20zM82 100h31v-21
h-31v21zM154 100h133v-21h-133v21z" />
    <glyph glyph-name="uniF107" unicode="&#xf107;" horiz-adv-x="513" 
d="M212 356h254c25 0 47 -21 47 -47v-154c0 -25 -19 -45 -44 -45h-89c-2 -22 -9 -38 -19 -48c-12 -12 -28 -15 -41 -12c-3 1 -5 2 -7 3c-1 -1 -2 -1 -3 -2c-6 -6 -13 -11 -21 -13s-18 -1 -27 2s-15 10 -18 17c-3 -3 -7 -4 -11 -6c-9 -4 -21 -6 -33 -2c-8 3 -13 9 -16 17
c-15 -7 -34 -11 -60 -11h-1l-111 -6v0c-6 0 -11 4 -11 10c0 5 5 10 10 10l111 7h1v0c35 0 52 7 66 17s25 26 44 42l2 1l1 1s37 12 61 29c11 8 19 17 21 26s1 17 -4 24c-5 6 -10 7 -21 5s-26 -9 -39 -16v0l-95 -44c-1 -1 -3 -1 -5 -1c-6 0 -10 4 -10 10c0 4 3 9 7 10l14 6
v122c0 1 1 3 1 4c-8 4 -12 3 -18 0c-7 -4 -15 -12 -25 -21c-11 -9 -37 -28 -61 -45s-45 -32 -45 -32c-2 -2 -5 -2 -7 -2c-6 0 -10 4 -10 10c0 4 3 7 6 9c0 0 20 15 44 32s50 37 59 44s17 17 29 23c6 3 12 5 20 5c5 0 9 -1 14 -3c2 3 4 5 6 7c8 9 19 17 34 17zM212 335
c-8 0 -14 -3 -19 -9s-7 -14 -7 -18v-3h307v4c0 13 -14 26 -27 26h-254zM186 264v-68l59 27v0c14 7 29 15 44 18s31 0 41 -13c9 -12 12 -27 8 -41s-14 -28 -29 -38c-11 -8 -22 -13 -33 -18h193c13 0 24 10 24 24v109h-307zM237 110c-12 -11 -22 -23 -35 -33c0 -5 2 -7 4 -8
c7 -2 13 -2 18 0s11 7 15 12l2 2v2c1 7 2 18 3 25h-7zM265 110c-1 -6 -2 -18 -4 -28c-1 -5 0 -11 1 -15s4 -7 7 -8c7 -2 10 -3 14 -2s8 4 13 9c-1 -1 2 2 4 4c1 1 0 1 1 2c-2 8 -1 15 0 22c1 5 1 11 2 16h-38zM324 110c-1 -5 -2 -11 -3 -18c-1 -6 0 -13 1 -17s1 -4 3 -5
c7 -2 13 -2 21 6c6 6 11 17 13 34h-35z" />
    <glyph glyph-name="uniF150" unicode="&#xf150;" horiz-adv-x="492" 
d="M246 438c136 0 246 -110 246 -246s-110 -246 -246 -246s-246 110 -246 246s110 246 246 246zM246 417c-125 0 -226 -100 -226 -225s101 -225 226 -225s225 100 225 225s-100 225 -225 225zM246 397c113 0 205 -92 205 -205s-92 -205 -205 -205s-205 92 -205 205
s92 205 205 205zM246 376c-60 0 -113 -28 -147 -72c20 1 42 3 42 3h1c10 0 11 -16 1 -17c0 0 -11 -1 -23 -2l74 -219l43 132l-31 86l-22 2c-10 0 -9 17 1 17h1s35 -3 54 -3c22 0 54 3 54 3h1c10 0 11 -16 1 -17l-24 -2l73 -217l20 68c10 27 16 48 16 65c0 25 -9 43 -17 56
c-10 16 -19 31 -19 47c0 12 6 23 16 30c-32 25 -71 40 -115 40zM373 318c-4 -3 -6 -8 -6 -13c0 -9 6 -20 14 -33l2 -4c6 -10 11 -23 15 -37c3 12 6 25 6 37v8c-8 15 -19 30 -31 42zM231 283l28 -75l2 -7l7 -19l56 -151c3 1 6 3 9 4l2 8l-7 20l-73 217l-1 2c-5 0 -8 0 -12 1
h-11zM91 282l-6 -12l88 -242c1 0 2 -1 4 -2l5 17l-6 18l-74 219l-1 2h-10zM420 252c-2 -16 -7 -34 -15 -54l-54 -157c48 33 79 88 79 151c0 21 -3 41 -10 60zM69 245c-5 -17 -8 -35 -8 -53c0 -65 34 -122 84 -155zM246 176l-55 -160c17 -5 36 -8 55 -8c20 0 40 3 58 9z" />
    <glyph glyph-name="uniF127" unicode="&#xf127;" 
d="M481 387c17 0 31 -14 31 -31v-328c0 -17 -14 -31 -31 -31c-14 0 -25 10 -29 23l-184 65l-7 -20c-8 -24 -34 -37 -58 -29l-42 15c-24 8 -37 33 -29 57v0v0l8 22l-82 28c-5 -10 -15 -17 -27 -17c-17 0 -31 14 -31 31v61c0 17 14 31 31 31c12 0 22 -8 27 -18l394 118
c4 13 15 23 29 23zM481 366c-5 0 -10 -4 -10 -9v-1v0v-328v0v0c0 -6 4 -10 10 -10s11 4 11 10v328c0 6 -5 10 -11 10zM451 342l-390 -117v-46l390 -136v299zM31 243c-6 0 -11 -4 -11 -10v-61c0 -6 5 -11 11 -11c5 0 10 5 10 10v0v1v61v1c0 5 -5 9 -10 9zM159 123l-8 -21v-1
c-4 -13 3 -27 16 -31l43 -14c13 -4 27 3 31 16l7 20z" />
    <glyph glyph-name="uniF11B" unicode="&#xf11b;" horiz-adv-x="477" 
d="M464 72c2 0 3 -1 4 -3s1 -3 0 -5c-11 -18 -25 -36 -41 -51s-33 -28 -52 -39s-39 -18 -60 -24s-43 -9 -64 -9c-31 0 -61 5 -91 15s-57 24 -81 45s-42 47 -57 79s-22 70 -22 114c0 36 7 69 20 99s31 57 54 79s50 40 80 52s63 19 97 19c31 0 61 -5 88 -15s51 -23 71 -41
s37 -41 49 -67s18 -55 18 -87c0 -27 -5 -53 -14 -76s-21 -43 -36 -61s-31 -32 -49 -42s-36 -16 -53 -16c-14 0 -27 5 -36 14c-6 6 -9 13 -10 21c-11 -12 -24 -21 -38 -26c-31 -11 -63 -12 -89 0c-12 5 -22 13 -31 22s-15 20 -20 33s-8 26 -8 40c0 22 4 45 12 68s19 45 33 65
s33 36 53 49c21 13 43 20 68 20c23 0 43 -5 61 -16c15 -9 26 -21 33 -35l12 34c1 2 3 4 5 4h14c2 0 4 -2 5 -3s1 -2 0 -4l-75 -196c-4 -10 -8 -19 -10 -28c-2 -8 -2 -15 -1 -21c1 -5 2 -9 6 -12s9 -5 17 -5c13 0 27 4 42 13s29 21 41 36c13 15 23 33 31 54s13 44 13 68
c0 27 -5 53 -15 76s-24 42 -42 58s-39 29 -64 38s-52 14 -81 14c-32 0 -62 -6 -90 -18s-52 -28 -72 -48s-37 -44 -48 -71s-17 -57 -17 -88c0 -38 6 -72 18 -100s29 -53 50 -72s45 -33 72 -43s56 -15 87 -15c20 0 40 3 59 8s36 14 53 23c17 10 31 20 45 33s26 26 36 41
c1 1 2 3 4 3h16zM341 264c-3 10 -7 19 -13 26s-12 13 -20 17s-17 8 -26 10s-17 3 -25 3c-20 0 -39 -6 -56 -17c-17 -12 -33 -26 -45 -44s-22 -37 -29 -58s-10 -41 -10 -59c0 -12 2 -22 6 -32s9 -18 16 -25s15 -13 24 -17c16 -7 37 -8 58 -3c9 2 17 6 26 12s17 14 25 24
s15 23 21 39z" />
    <glyph glyph-name="uniF11A" unicode="&#xf11a;" horiz-adv-x="513" 
d="M204 413v0c22 0 42 -5 53 -19c17 -3 30 -12 38 -23c9 -12 12 -26 13 -41c2 -27 -4 -54 -9 -70c5 -6 8 -13 7 -24c-2 -13 -5 -22 -10 -28c-3 -3 -6 -3 -9 -5c-2 -11 -5 -22 -9 -31c-3 -5 -5 -10 -8 -14c-1 -2 -4 -3 -5 -4c0 -13 0 -23 1 -36c4 -11 17 -19 37 -27
s45 -17 66 -31c3 -2 5 -6 5 -9c0 -6 -4 -10 -10 -10c-2 0 -5 1 -7 2c-18 12 -40 20 -61 29s-42 18 -50 39v2v1c-2 17 -1 29 -1 44v6l5 3c-1 -1 1 1 3 4s4 6 6 10c4 8 8 19 9 28l1 9h8s1 0 3 2s5 8 6 18c1 9 -3 11 -3 11l-7 4l2 8c4 13 12 42 10 67c-1 12 -4 23 -10 31
s-14 14 -28 16l-5 1l-2 4c-4 7 -17 13 -38 13h-1c-43 -1 -62 -15 -72 -38s-9 -57 1 -94l2 -8l-7 -4s-4 -2 -3 -11c1 -10 4 -16 6 -18l2 -2h9l1 -9c1 -9 5 -20 9 -28c2 -4 4 -7 6 -10s4 -4 3 -4l6 -3v-6c0 -15 1 -27 -1 -44l-1 -1v-2c-6 -16 -19 -26 -34 -33s-32 -12 -48 -19
s-31 -16 -42 -27c-9 -9 -14 -21 -17 -35h284v0c6 0 10 -4 10 -10s-4 -10 -10 -10v0h-297h-11l1 11c2 25 11 45 25 59s32 23 49 30s34 14 47 20s20 13 23 21c1 13 1 23 1 36c-1 1 -3 2 -4 4c-3 4 -6 9 -9 14c-4 9 -7 20 -9 31c-3 2 -6 2 -9 5c-5 6 -8 15 -10 28
c-1 12 2 19 7 25c-9 37 -12 73 1 102c13 30 43 49 91 50zM482 120c8 0 16 -3 22 -9c12 -12 12 -31 0 -43c0 0 -2 -1 -4 -3v0c-1 -1 -1 -2 -1 -2l-114 -114c-1 -1 -3 -2 -5 -2l-39 -11h-2c-6 0 -11 4 -11 10c0 1 1 2 1 3l10 39c0 2 2 4 3 5l113 113l5 5c6 6 14 9 22 9z
M470 92l-112 -112v0l14 -14h1l111 111z" />
    <glyph glyph-name="uniF134" unicode="&#xf134;" 
d="M0 407h10h492h10v-10v-410v-10h-10h-492h-10v10v410v10zM20 387v-390h472v390h-472zM41 366h10h410h10v-10v-284v-2v-2v-40v-10h-10h-410h-10v10v101v2v2v223v10zM61 346v-192l116 107c1 1 4 3 6 3h1c2 0 6 -2 8 -4l105 -114l44 43c1 1 4 3 6 3h1c2 0 6 -1 8 -3l95 -95
v252h-390zM358 294c17 0 31 -13 31 -30s-14 -31 -31 -31s-30 14 -30 31s13 30 30 30zM184 239l-123 -113v-88h390v27l-103 102l-42 -42l-3 -3l-29 -30c-2 -2 -6 -3 -8 -3c-6 0 -10 5 -10 11c0 2 1 5 3 7l24 24z" />
    <glyph glyph-name="uniF10D" unicode="&#xf10d;" 
d="M362 449c52 0 95 -43 95 -95v-3c31 -5 55 -31 55 -63c0 -25 -15 -47 -36 -58l34 -142v-1v0c1 -2 2 -5 2 -8v-123c0 -11 -9 -20 -20 -20h-472c-11 0 -20 9 -20 20v123c0 2 0 4 1 6v1l59 243v1v0c2 9 9 16 19 16h99h1h1c6 6 13 10 21 13c3 26 24 47 51 47c10 0 19 -3 27 -8
c16 30 47 51 83 51zM362 428c-32 0 -59 -20 -70 -48l-6 -15l-11 11c-6 6 -14 9 -23 9c-18 0 -31 -13 -31 -31v-2v-8l-8 -2c-21 -6 -36 -26 -36 -49c0 -28 22 -50 50 -50h219c5 0 10 1 15 3h1c17 6 30 23 30 42c0 25 -21 45 -46 45v0h-11l1 12v9c0 41 -33 74 -74 74zM79 325
l-53 -225h460l-30 124c-3 -1 -7 -1 -10 -1h-219c-39 0 -71 31 -71 70c0 11 3 23 8 32h-85zM20 79v-123h472v123h-1h-471zM410 38c11 0 20 -9 20 -20s-9 -21 -20 -21s-21 10 -21 21s10 20 21 20z" />
    <glyph glyph-name="uniF144" unicode="&#xf144;" horiz-adv-x="495" 
d="M247 440l10 -25l56 -145l155 -8l27 -2l-21 -16l-121 -98l40 -150l7 -26l-22 14l-131 85l-130 -85l-22 -14l6 26l40 150l-120 98l-21 16l27 2l155 8l56 145zM247 383l-48 -126l-3 -6l-7 -1l-135 -7l105 -86l5 -4l-1 -6l-35 -131l114 74l5 3l6 -3l113 -74l-34 131l-2 6l5 4
l106 86l-136 7l-6 1l-3 6z" />
    <glyph glyph-name="uniF104" unicode="&#xf104;" 
d="M205 417h102c17 0 31 -13 31 -30v-31h143c17 0 31 -14 31 -31v-328c0 -17 -14 -30 -31 -30h-450c-17 0 -31 13 -31 30v175v0v1v152c0 17 14 31 31 31h143v31c0 17 14 30 31 30zM205 397c-6 0 -10 -4 -10 -10v-31h122v31c0 6 -4 10 -10 10h-102zM31 335
c-6 0 -10 -4 -10 -10v-152v-1v0c0 -6 4 -11 10 -11h450c6 0 11 5 11 11v0v1v0v152c0 6 -5 10 -11 10h-450zM256 223c11 0 21 -10 21 -21s-10 -20 -21 -20s-20 9 -20 20s9 21 20 21zM21 143v-146c0 -6 4 -10 10 -10h450c6 0 11 4 11 10v146c-3 -1 -7 -2 -11 -2h-450
c-4 0 -7 1 -10 2z" />
    <glyph glyph-name="uniF109" unicode="&#xf109;" 
d="M8 448h1v0h1v0h123c6 0 10 -4 10 -10v-123c0 -6 -4 -10 -10 -10h-123c-6 0 -10 4 -10 10v123v0c0 5 3 9 8 10zM20 428v-103h103v103h-103zM105 414l15 -14l-46 -51l-6 -8l-8 7l-36 31l13 15l29 -24zM205 386h307v-20h-307v20zM8 264h1v0h1v0h123c6 0 10 -5 10 -11v-122
c0 -6 -4 -11 -10 -11h-123c-6 0 -10 5 -10 11v122v1c0 5 3 9 8 10zM20 243v-102h103v102h-103zM105 229l15 -13l-46 -51l-6 -8l-8 7l-36 31l13 15l29 -24zM205 202h307v-20h-307v20zM8 79h1v0h1v0h123c6 0 10 -4 10 -10v-123c0 -6 -4 -10 -10 -10h-123c-6 0 -10 4 -10 10
v123v0c0 5 3 9 8 10zM20 59v-103h103v103h-103zM205 18h307v-20h-307v20z" />
    <glyph glyph-name="uniF11E" unicode="&#xf11e;" 
d="M225 448h246c23 0 41 -18 41 -41v-164c0 -19 -13 -34 -31 -39v-63c0 -6 -4 -10 -10 -10c-2 0 -5 1 -7 2l-79 69h-160c-23 0 -41 18 -41 41v164c0 23 18 41 41 41zM225 428c-12 0 -20 -9 -20 -21v-164c0 -12 8 -20 20 -20h164c2 0 5 -2 7 -3l65 -57v49c0 6 4 11 10 11
c12 0 21 8 21 20v164c0 12 -9 21 -21 21h-246zM338 386h21l25 -118h-19l-6 31h-22l-6 -31h-19zM348 366c-1 -8 -3 -19 -4 -26l-5 -27h19l-5 27c-2 7 -3 18 -4 26h-1zM41 253h133v-20h-133c-12 0 -21 -9 -21 -21v-163c0 -12 9 -21 21 -21c6 0 10 -4 10 -10v-49l65 57
c2 1 5 2 7 2h164c12 0 20 9 20 21v143h21v-143c0 -23 -18 -41 -41 -41h-160l-79 -69c-2 -1 -5 -3 -7 -3c-6 0 -10 4 -10 10v64c-18 5 -31 20 -31 39v163c0 23 18 41 41 41zM160 192c25 0 34 -26 34 -58c0 -31 -8 -49 -19 -55v-1c7 -3 16 -6 23 -8l-7 -14c-9 4 -21 10 -28 14
c-2 1 -4 2 -5 2c-22 0 -35 20 -35 60c0 35 13 60 37 60zM159 177c-12 0 -17 -21 -17 -43c0 -25 5 -45 17 -45c11 0 15 20 15 45c0 23 -4 43 -15 43z" />
    <glyph glyph-name="uniF13B" unicode="&#xf13b;" horiz-adv-x="439" 
d="M174 417c96 0 174 -78 174 -174c0 -43 -16 -83 -42 -113l133 -134l-28 -28l-135 134c-29 -21 -64 -33 -102 -33c-96 0 -174 78 -174 174s78 174 174 174zM174 397c-85 0 -154 -69 -154 -154s69 -153 154 -153s154 68 154 153s-69 154 -154 154z" />
    <glyph glyph-name="uniF11F" unicode="&#xf11f;" horiz-adv-x="471" 
d="M0 448h10h205h4l3 -3l144 -143l3 -3v-5v-102v0c0 -6 -5 -10 -11 -10s-10 4 -10 10v0v92h-133h-10v10v134h-185v-451h195v0c6 0 10 -4 10 -10s-4 -11 -10 -11v0h-205h-10v11v471v10zM225 413v-108h108zM328 208l37 -98l106 -5l-82 -67l28 -102l-89 57l-89 -57l27 102
l-82 67l106 5z" />
    <glyph glyph-name="uniF121" unicode="&#xf121;" 
d="M0 376h10h430h11v-10v-31v0c0 -6 -5 -10 -11 -10s-10 4 -10 10v0v21h-410v-266h21v0c6 0 10 -5 10 -11s-4 -10 -10 -10v0h-31h-10v10v287v10zM61 315h11h430h10v-10v-287v-10h-10h-430h-11v10v287v10zM82 294v-18c5 -4 162 -132 176 -144c11 -9 23 -11 29 -11s18 2 29 11
c14 12 171 140 176 144v18h-410zM82 250v-179l114 86c-46 38 -97 79 -114 93zM492 250c-17 -14 -68 -55 -114 -93l114 -86v179zM212 143l-130 -97v-18h410v18l-130 97c-10 -9 -31 -25 -33 -27c-16 -13 -32 -15 -42 -15s-27 2 -43 15c-2 2 -22 18 -32 27z" />
    <glyph glyph-name="uniF12B" unicode="&#xf12b;" horiz-adv-x="493" 
d="M8 420h1h1h325c6 0 11 -5 11 -11v-365c0 -36 17 -51 34 -60s34 -9 34 -9s14 0 29 8s29 24 29 60v257h1s-1 8 -5 16s-9 14 -25 14s-21 -7 -25 -14s-4 -15 -4 -15v-1v-248v0c0 -6 -4 -10 -10 -10s-10 4 -10 10v0v249s0 12 6 24c1 2 2 3 3 5h-57v21h97v-1
c23 0 38 -13 44 -25s6 -25 6 -25v0v0v-257v-1v0v-1l-1 -1c-1 -40 -20 -64 -39 -75c-20 -11 -39 -11 -39 -11s-5 0 -10 1v-1h-20h-295s-22 0 -44 11s-45 36 -45 79v365v1c0 5 4 9 8 10zM20 399v-355c0 -32 13 -48 28 -57c2 -1 4 -3 6 -4c4 -2 9 -4 13 -5s8 -1 11 -2
c6 -1 11 -1 11 -1v0v0h267c-17 13 -31 35 -31 69v355h-305zM61 335h1v0h1v0h1v0h202v0c6 0 11 -4 11 -10s-5 -10 -11 -10v0h-202h-1c-6 0 -10 4 -10 10c0 5 3 9 8 10zM61 294h1v0h1v0h1v0h202v0c6 0 11 -4 11 -10s-5 -10 -11 -10v0h-202h-1c-6 0 -10 4 -10 10c0 5 3 9 8 10z
M66 212h1v0h1v0h1v0h70v0c6 0 10 -4 10 -10s-4 -10 -10 -10v0h-70h-1c-6 0 -11 4 -11 10c0 5 4 9 9 10zM184 212h1v0h1v0h1v0h79v0c6 0 11 -4 11 -10s-5 -10 -11 -10v0h-79h-1c-6 0 -11 4 -11 10c0 5 4 9 9 10zM66 172h1v0h1v0h1v0h70v0c6 0 10 -5 10 -11s-4 -10 -10 -10v0
h-70h-1c-6 0 -11 4 -11 10c0 5 4 10 9 11zM184 172h1v0h1v0h1v0h79v0c6 0 11 -5 11 -11s-5 -10 -11 -10v0h-79h-1c-6 0 -11 4 -11 10c0 5 4 10 9 11zM184 133h1v0h1h1h79v0c6 0 11 -4 11 -10s-5 -11 -11 -11v0h-79h-1c-6 0 -11 5 -11 11c0 5 4 9 9 10zM66 131h1v0h1v0h1v0
h70v0c6 0 10 -5 10 -11s-4 -10 -10 -10v0h-70h-1c-6 0 -11 4 -11 10c0 5 4 10 9 11zM184 92h1v0h1h1h79v0c6 0 11 -4 11 -10s-5 -11 -11 -11v0h-79h-1c-6 0 -11 5 -11 11c0 5 4 9 9 10zM66 90h1v0h1v0h1v0h70v0c6 0 10 -5 10 -11s-4 -10 -10 -10v0h-70h-1c-6 0 -11 4 -11 10
c0 5 4 10 9 11zM184 53h1v0h1v0h1v0h79v0c6 0 11 -4 11 -10s-5 -10 -11 -10v0h-79h-1c-6 0 -11 4 -11 10c0 5 4 9 9 10zM66 49h1v0h1v0h1v0h70v0c6 0 10 -5 10 -11s-4 -10 -10 -10v0h-70h-1c-6 0 -11 4 -11 10c0 5 4 10 9 11z" />
    <glyph glyph-name="uniF132" unicode="&#xf132;" horiz-adv-x="410" 
d="M205 436c73 0 133 -61 133 -134v-59h41c17 0 31 -14 31 -31v-245c0 -17 -14 -31 -31 -31h-348c-17 0 -31 14 -31 31v245c0 17 14 31 31 31h41v59c0 73 60 134 133 134zM205 415c-62 0 -113 -51 -113 -113v-59h225v59c0 62 -50 113 -112 113zM31 223c-6 0 -11 -5 -11 -11
v-245c0 -6 5 -11 11 -11h348c6 0 10 5 10 11v245c0 6 -4 11 -10 11h-348zM82 110c11 0 20 -9 20 -20s-9 -21 -20 -21s-21 10 -21 21s10 20 21 20zM164 110c11 0 20 -9 20 -20s-9 -21 -20 -21s-21 10 -21 21s10 20 21 20zM246 110c11 0 20 -9 20 -20s-9 -21 -20 -21
s-21 10 -21 21s10 20 21 20zM328 110c11 0 20 -9 20 -20s-9 -21 -20 -21s-21 10 -21 21s10 20 21 20z" />
    <glyph glyph-name="uniF133" unicode="&#xf133;" horiz-adv-x="451" 
d="M121 448v0h1v0h1h143c6 0 10 -4 10 -10v-10h83c16 0 30 -14 30 -30v-93h-20v93c0 4 -6 9 -10 9h-83v-20h62h10v-11v-71h-20v61h-52v-10c0 -6 -4 -10 -10 -10h-143c-6 0 -10 4 -10 10v10h-52v-328h72v-20h-82h-10v10v348v11h10h62v20h-83c-4 0 -10 -5 -10 -9v-390
c0 -6 6 -11 10 -11h103v-20h-103c-16 0 -30 14 -30 31v390c0 16 14 30 30 30h83v10v0c0 5 3 9 8 10zM133 428v-62h123v62h-123zM152 294v0h1v0h1h286c6 0 11 -4 11 -10v-338c0 -6 -5 -10 -11 -10h-286c-6 0 -11 4 -11 10v338v0c0 5 4 9 9 10zM164 274v-318h266v318h-266z
M212 212h1v0h1v0h1v0h174v0c6 0 11 -4 11 -10s-5 -10 -11 -10v0h-174h-1c-6 0 -11 4 -11 10c0 5 4 9 9 10zM212 151h1v0h1v0h1v0h123v0c6 0 10 -4 10 -10s-4 -10 -10 -10v0h-123l-1 -1c-6 0 -11 5 -11 11c0 5 4 9 9 10zM212 90h1v0h1v0h1v0h174v0c6 0 11 -5 11 -11
s-5 -10 -11 -10v0h-174h-1c-6 0 -11 4 -11 10c0 5 4 10 9 11zM212 28h1v0h1v0h1v0h123v0c6 0 10 -4 10 -10s-4 -10 -10 -10v0h-123h-1c-6 0 -11 4 -11 10c0 5 4 9 9 10z" />
    <glyph glyph-name="uniF10B" unicode="&#xf10b;" 
d="M29 366v0h1v0h1h450c6 0 11 -4 11 -10v-297h10c6 0 10 -4 10 -10v-52c0 -6 -4 -10 -10 -10h-492c-6 0 -10 4 -10 10v52v0c0 5 4 10 9 10h1v0h10v297v0c0 5 4 9 9 10zM41 346v-287h72v41h111l12 -21l-12 -20h154h93v287h-430zM399 295h1c6 0 10 -5 10 -11
c0 -3 -2 -6 -5 -8l-143 -103c-1 -1 -4 -2 -6 -2s-4 2 -6 3l-56 46l-75 -57c-1 -1 -4 -2 -6 -2c-6 0 -11 5 -11 11c0 3 3 6 5 8l81 61c1 1 5 2 7 2s4 -1 6 -2l55 -46l137 97c1 1 4 2 5 2zM20 38v-30h472v30h-114h-358z" />
    <glyph glyph-name="uniF14C" unicode="&#xf14c;" horiz-adv-x="513" 
d="M204 403v0c22 0 42 -5 53 -19c8 -2 16 -5 22 -9c14 11 34 18 59 18c18 0 33 -5 43 -16c15 -3 27 -10 34 -20c8 -11 11 -23 12 -36c2 -23 -4 -45 -8 -59c4 -5 7 -11 6 -20v-1c-1 -11 -5 -18 -9 -24c-2 -3 -4 -3 -7 -4c-2 -9 -4 -18 -8 -25c-2 -4 -5 -9 -7 -12l-4 -4
c0 -10 0 -18 1 -29c3 -6 9 -12 19 -17c11 -5 26 -10 40 -16s29 -14 41 -26s21 -29 22 -51v-11h-11h-106c8 -12 13 -26 14 -44l1 -11h-11h-389h-11l1 11c2 25 11 44 25 58s32 24 49 31s34 14 47 20s20 13 23 21c1 13 1 23 1 36c-1 1 -3 2 -4 4c-3 4 -6 9 -9 14
c-4 9 -7 19 -9 30c-3 2 -6 3 -9 6c-5 6 -8 15 -10 28c-1 12 2 19 7 25c-9 37 -12 73 1 102c13 30 43 49 91 50zM204 382c-43 -1 -62 -15 -72 -38s-9 -56 1 -93l2 -8l-7 -4s-4 -2 -3 -11c1 -10 4 -16 6 -18l2 -2l9 -1l1 -8c1 -9 5 -20 9 -28c2 -4 4 -8 6 -11s4 -3 3 -3l6 -3
v-6c0 -15 1 -27 -1 -44l-1 -2v-1c-6 -16 -19 -26 -34 -33s-32 -13 -48 -20s-31 -15 -42 -26c-9 -9 -14 -21 -17 -35h363c-3 15 -8 26 -17 35l-1 1v0c-1 0 -1 1 -2 2l-2 1v1c-10 9 -22 15 -36 21c-16 7 -33 13 -48 20s-29 17 -35 33v1v2c-2 17 -1 29 -1 44v6l5 3
c-1 -1 1 0 3 3s4 7 6 11c4 8 8 19 9 28l1 8l8 1s1 0 3 2s5 8 6 18c1 9 -3 11 -3 11l-7 4l2 8c4 13 12 42 10 67c-1 12 -4 23 -10 31s-14 14 -28 16h-5l-2 5c-4 7 -17 12 -38 12h-1zM338 372c-20 0 -33 -5 -43 -11v0c9 -12 12 -27 13 -42c2 -27 -4 -53 -9 -69
c5 -6 8 -13 7 -24c-2 -13 -5 -22 -10 -28c-3 -3 -6 -4 -9 -6c-2 -11 -5 -21 -9 -30c-3 -5 -5 -10 -8 -14c-1 -2 -4 -3 -5 -4c0 -13 0 -24 1 -37c3 -8 12 -14 24 -20c13 -6 30 -13 47 -20c14 -6 28 -13 41 -24h112c-3 11 -7 19 -14 26c-9 9 -21 16 -34 22s-28 11 -41 17
s-24 14 -29 28l-1 2v1c-1 15 -1 25 -1 37v6l5 3v0h1s1 2 2 3c2 2 2 4 4 8c3 7 7 17 8 24v8h9l1 2s4 6 5 14c1 7 -3 9 -2 8l-7 4l2 8c4 11 10 35 8 55c-1 10 -3 20 -8 26s-10 10 -22 12l-5 1l-3 4c-3 5 -13 10 -30 10v0z" />
    <glyph glyph-name="uniF10C" unicode="&#xf10c;" 
d="M100 448h1v0h1v0h379c6 0 11 -4 11 -10v-246h10c6 0 10 -4 10 -10v-31c0 -6 -4 -10 -10 -10h-277v0c-6 0 -10 4 -10 10s4 10 10 10v0h267v11h-267v0c-6 0 -10 4 -10 10c0 5 4 10 9 10h1v0h113v41h91l11 -21l-11 -20h42v236h-358v-11v0c0 -6 -5 -10 -11 -10s-10 4 -10 10
v0v21v0c0 5 3 9 8 10zM123 397c34 0 61 -28 61 -62s-27 -61 -61 -61s-62 27 -62 61s28 62 62 62zM123 274h40h1l68 14l44 57c5 7 12 10 19 11s15 -1 21 -6c13 -10 15 -28 6 -41v0v-1l-52 -66v0c-5 -6 -12 -11 -21 -14v0v0l-44 -16v-93c23 -5 41 -25 41 -50
c0 -16 -7 -30 -18 -39c12 -6 21 -15 28 -26c7 11 16 20 28 26c-11 9 -18 23 -18 39c0 28 23 51 51 51s52 -23 52 -51c0 -16 -8 -30 -19 -39c12 -6 22 -15 29 -26c7 11 16 20 28 26c-11 9 -18 23 -18 39c0 28 23 51 51 51s52 -23 52 -51c0 -16 -8 -30 -19 -39
c23 -12 39 -36 39 -63v-21c0 -6 -4 -10 -10 -10h-122h-1v0h-2h-120h-1h-2h-120v0h-1h-123c-6 0 -10 4 -10 10v21c0 27 16 51 39 63c-11 9 -19 23 -19 39c0 21 13 39 31 47v110c0 19 9 33 19 40s21 8 29 8h24zM123 376c-23 0 -41 -18 -41 -41s18 -41 41 -41s41 18 41 41
s-18 41 -41 41zM297 335c-2 0 -4 -1 -5 -3l-46 -59c-1 -2 -4 -4 -6 -4l-74 -15c-1 0 -1 -1 -2 -1h-65c-6 0 -13 -1 -18 -4s-9 -9 -9 -23v-106c28 0 51 -23 51 -51c0 -16 -7 -30 -18 -39c12 -6 21 -15 28 -26c7 11 17 20 29 26c-11 9 -19 23 -19 39c0 25 18 45 41 50v101v0
c0 4 3 8 7 9l51 19h1c5 1 10 5 11 6v1v0l51 66v0c3 4 2 10 -1 12c-2 1 -5 2 -7 2zM72 100c-2 0 -4 -1 -6 -1h-2h-2c-12 -4 -21 -16 -21 -30c0 -17 14 -31 31 -31s30 14 30 31s-13 31 -30 31zM317 100c-17 0 -30 -14 -30 -31s13 -31 30 -31s31 14 31 31s-14 31 -31 31z
M440 100c-17 0 -30 -14 -30 -31s13 -31 30 -31s31 14 31 31s-14 31 -31 31zM192 100c-16 -1 -28 -15 -28 -31c0 -17 14 -31 31 -31s30 14 30 31c0 16 -12 30 -28 31h-1c-1 0 -1 -1 -2 -1s-1 1 -2 1v0zM72 18c-28 0 -52 -23 -52 -51v-11h103v11c0 28 -23 51 -51 51zM195 18
c-28 0 -52 -23 -52 -51v-11h103v11c0 28 -23 51 -51 51zM317 18c-28 0 -51 -23 -51 -51v-11h103v11c0 28 -24 51 -52 51zM440 18c-28 0 -51 -23 -51 -51v-11h103v11c0 28 -24 51 -52 51z" />
    <glyph glyph-name="uniF100" unicode="&#xf100;" horiz-adv-x="511" 
d="M256 438c141 0 255 -103 255 -229s-115 -227 -256 -227c-19 0 -37 2 -55 6c-18 -8 -53 -22 -90 -32c-19 -5 -38 -10 -56 -11s-34 0 -47 8l-3 2l-2 4c-1 5 1 10 3 14s5 6 8 9c6 6 15 12 23 19c16 13 31 30 38 51c-46 41 -74 97 -74 159c0 126 115 227 256 227zM256 417
c-131 0 -236 -92 -236 -206c0 -58 27 -112 72 -150l6 -3l-2 -7c-7 -31 -29 -51 -47 -66c-8 -7 -15 -12 -20 -16c7 -2 14 -5 24 -4c16 1 34 5 52 10c36 10 73 25 90 33l2 1l4 -1c18 -4 35 -5 54 -5c131 0 236 92 236 206s-104 208 -235 208zM244 317h24c2 0 4 -1 4 -4v-27
c0 -2 -1 -4 -4 -4h-24c-2 0 -4 1 -4 4v27c0 2 1 4 4 4zM245 242h23c2 0 4 -1 4 -4v-138c0 -2 -1 -4 -4 -4h-23v1c-2 0 -4 1 -4 4v137c0 2 1 4 4 4z" />
    <glyph glyph-name="uniF125" unicode="&#xf125;" 
d="M492 417c11 0 20 -9 20 -20s-9 -21 -20 -21c-2 0 -4 0 -6 1l-107 -99v0v-4c0 -11 -10 -21 -21 -21s-20 10 -20 21v1l-72 43c-3 -2 -6 -3 -10 -3c-3 0 -6 0 -8 1l-74 -59v-4c0 -11 -9 -20 -20 -20c-4 0 -9 2 -12 4l-101 -47c-1 -10 -10 -18 -21 -18s-20 9 -20 20
s9 20 20 20c4 0 9 -1 12 -3l101 46c1 10 10 19 21 19c3 0 5 0 7 -1l75 59v3c0 11 9 21 20 21s20 -10 20 -21v0l72 -43c3 2 6 2 10 2c2 0 4 0 6 -1l107 99v1v4c0 11 10 20 21 20zM492 151c11 0 20 -9 20 -20s-9 -21 -20 -21c-2 0 -4 0 -6 1l-107 -99v0v-4
c0 -11 -10 -21 -21 -21s-20 10 -20 21c0 2 1 3 1 5l-78 77h-5c-3 0 -6 0 -8 1l-74 -60v-3c0 -11 -9 -20 -20 -20c-9 0 -16 5 -19 12l-99 16c-4 -5 -10 -8 -16 -8c-11 0 -20 10 -20 21s9 20 20 20c9 0 16 -6 19 -13l99 -15c4 5 10 8 16 8c3 0 5 -1 7 -2l75 60v3
c0 11 9 21 20 21s20 -10 20 -21v-5l77 -77h5s4 0 6 -1l107 99v0v5c0 11 10 20 21 20z" />
    <glyph glyph-name="uniF10E" unicode="&#xf10e;" horiz-adv-x="430" 
d="M189 335c49 0 90 -34 103 -79c11 4 23 8 36 8c56 0 102 -47 102 -103s-46 -102 -102 -102h-246c-45 0 -82 37 -82 82s37 82 82 82v0v5c0 59 48 107 107 107zM189 315c-48 0 -87 -39 -87 -87c0 -5 1 -10 2 -15l2 -14l-14 2c-3 1 -7 1 -10 1c-34 0 -62 -27 -62 -61
s28 -62 62 -62h246c45 0 82 37 82 82s-37 82 -82 82c-14 0 -27 -3 -38 -9l-13 -6l-2 14c-7 42 -42 73 -86 73z" />
    <glyph glyph-name="uniF13D" unicode="&#xf13d;" 
d="M216 448h9h61h9l1 -8l12 -68c13 -4 27 -9 39 -16l55 40l7 5l6 -6l44 -43l6 -6l-5 -7l-40 -57c7 -12 12 -25 16 -38l67 -11l9 -1v-9v-61v-9l-8 -1l-68 -12c-4 -13 -9 -26 -16 -38l40 -56l5 -7l-6 -6l-43 -44l-6 -6l-7 5l-57 40c-12 -7 -25 -12 -38 -16l-12 -68l-1 -8h-9
h-61h-9l-1 9l-11 67c-14 4 -27 9 -39 16l-56 -40l-7 -5l-6 6l-43 44l-6 6l5 7l39 55c-7 12 -12 26 -16 39l-67 12l-8 1v9v61v9l9 1l67 11c4 13 8 27 15 39l-39 56l-5 7l6 6l44 43l6 6l7 -5l55 -39c12 7 26 11 39 15l11 67zM234 428l-11 -64l-1 -7l-7 -2
c-16 -4 -32 -11 -46 -19l-5 -3l-6 4l-53 37l-31 -31l37 -53l4 -5l-3 -6c-9 -14 -16 -29 -20 -46l-1 -7l-7 -1l-64 -11v-44l64 -11l7 -1l1 -7c4 -17 11 -32 20 -46l3 -5l-4 -6l-37 -52l31 -32l53 37l6 4l5 -3c14 -9 30 -15 46 -19l7 -2l1 -7l10 -64h45l11 65l1 6l7 2
c16 4 31 10 45 19l6 4l6 -4l53 -38l31 31l-38 53l-4 6l4 6c8 14 15 29 19 45l1 7l7 1l65 11v44l-65 11l-7 1l-1 7c-4 16 -11 31 -19 45l-4 6l4 6l38 53l-32 31l-52 -38l-6 -4l-6 4c-14 9 -29 15 -45 19l-7 2l-1 6l-11 65h-44zM256 284c51 0 92 -41 92 -92s-41 -92 -92 -92
s-92 41 -92 92s41 92 92 92zM256 264c-40 0 -72 -32 -72 -72s32 -72 72 -72s72 32 72 72s-32 72 -72 72z" />
    <glyph glyph-name="uniF119" unicode="&#xf119;" 
d="M29 448h393c16 0 29 -13 29 -29v-51v-1v-1v-10v-133v0c0 -6 -5 -11 -11 -11s-10 5 -10 11v0v133h-409v-307h225v0c6 0 10 -5 10 -11s-4 -10 -10 -10v0h-236c-6 0 -10 4 -10 10v318v10v1v1v51c0 16 13 29 29 29zM29 428c-5 0 -8 -4 -8 -9v-43h409v43c0 5 -3 9 -8 9h-393z
M72 294h41v-20h-41v20zM143 294h236v-20h-236v20zM72 243h41v-20h-41v20zM143 243h236v-20h-236v20zM470 193c11 0 22 -4 30 -12c16 -16 16 -44 0 -60l-1 -1v0v0c-1 -1 -2 -3 -3 -4l-162 -160c-1 -1 -4 -3 -5 -3l-61 -17h-3c-6 0 -10 4 -10 10v3l18 62c0 1 2 3 3 4l158 158
h-1l7 8c8 8 19 12 30 12zM72 192h41v-20h-41v20zM143 192h236v-20h-236v20zM448 159l-156 -157v-1l30 -29l157 156zM72 141h41v-21h-41v21zM143 141h195v-21h-195v21z" />
    <glyph glyph-name="uniF103" unicode="&#xf103;" horiz-adv-x="411" 
d="M204 414v0c23 0 43 -6 54 -20c16 -3 28 -11 36 -22c9 -12 13 -27 14 -42c2 -27 -4 -53 -9 -69c5 -6 8 -14 7 -25c-1 -13 -4 -22 -9 -28c-3 -3 -7 -3 -10 -5c-2 -11 -6 -22 -10 -31c-3 -5 -5 -9 -8 -13c-1 -2 -3 -3 -4 -4c0 -13 0 -23 1 -37c3 -6 8 -12 17 -17l1 -1h1
c1 0 2 0 3 -1v-1h1l1 -1c13 -7 30 -13 47 -20s34 -16 48 -30s24 -33 25 -59l1 -11h-11h-389h-11l1 11c1 26 11 45 25 59s31 23 48 30s34 14 47 20l1 1l2 1l1 1c1 0 1 1 2 1c9 5 14 10 17 16c2 14 1 25 1 38c-1 1 -4 2 -5 4c-3 4 -5 8 -8 13c-5 9 -7 20 -9 31c-3 2 -7 2 -9 5
c-5 6 -8 16 -10 28v0v0c-1 12 3 19 8 25c-9 37 -11 74 1 103c13 30 43 49 91 50zM204 394c-43 -1 -62 -16 -72 -39s-9 -57 0 -94l2 -7l-6 -4c1 1 -4 -4 -4 -12v0v0c1 -9 4 -16 6 -18c1 -1 2 -1 2 -1h9l1 -10c1 -9 5 -20 9 -28c2 -4 4 -7 6 -10s4 -4 3 -4l5 -3v-6v-28l40 -22
l40 21c0 10 -1 19 -1 29v6l6 3c-1 0 0 1 2 4s5 6 7 10c4 9 8 20 9 29l1 9h9s0 -1 2 1s4 8 5 18v0c0 8 -2 11 -2 11l-8 4l3 9c5 13 12 42 10 67c-1 12 -4 23 -10 31s-14 13 -28 15l-5 1l-2 4c-4 7 -18 14 -38 14h-1zM162 108c-4 -8 -10 -15 -17 -20l19 -23l24 29zM248 108
l-25 -14l23 -29l20 23c-7 5 -14 12 -18 20zM128 77c-14 -7 -30 -11 -45 -18c-16 -7 -32 -15 -43 -26c-9 -9 -13 -21 -16 -36h153c5 33 23 64 23 64l-7 6l-21 -25c-2 -2 -5 -4 -8 -4s-6 2 -8 4zM283 77l-29 -35c-2 -2 -5 -4 -8 -4s-6 2 -8 4l-20 25l-7 -6s18 -31 23 -64h153
c-3 15 -7 27 -16 36c-11 11 -26 19 -42 26c-15 7 -32 11 -46 18z" />
    <glyph glyph-name="uniF146" unicode="&#xf146;" 
d="M20 428h472c11 0 20 -10 20 -21v-369c0 -11 -9 -20 -20 -20h-175v-21h43c17 0 29 -13 29 -30v-21v-10h-10h-246h-10v10v21c0 17 12 30 29 30h43v21h-175c-11 0 -20 9 -20 20v369c0 11 9 21 20 21zM20 407v-369h183c1 0 1 1 2 1s1 -1 2 -1h98c1 0 1 1 2 1s1 -1 2 -1h183
v369h-472zM61 387h390c11 0 20 -10 20 -21v-246c0 -11 -9 -20 -20 -20h-390c-11 0 -20 9 -20 20v246c0 11 9 21 20 21zM61 366v-246h390v246h-390zM336 309l16 -13l-6 -8l-90 -115l-7 -8l-8 7l-74 65l-7 7l13 16l8 -7l66 -58l83 106zM440 90c11 0 21 -10 21 -21
s-10 -20 -21 -20s-20 9 -20 20s9 21 20 21zM215 18v-21h82v21h-82zM152 -23c-5 0 -9 -4 -9 -10v-11h226v11c0 6 -4 10 -9 10h-153h-4h-51z" />
    <glyph glyph-name="uniF14E" unicode="&#xf14e;" horiz-adv-x="451" 
d="M225 448c25 0 47 -14 78 -30s74 -36 140 -50l8 -2v-8c0 -304 -221 -418 -221 -418l-4 -2l-5 2s-56 26 -111 91s-110 170 -110 327v8l8 2c66 14 109 34 140 50s52 30 77 30zM225 428c-17 0 -36 -11 -68 -28c-31 -16 -74 -35 -136 -50c2 -147 53 -245 104 -306
c49 -58 94 -80 100 -83c13 7 200 111 204 389c-62 15 -104 34 -135 50c-32 17 -52 28 -69 28zM225 325c62 0 113 -51 113 -113s-51 -112 -113 -112s-112 50 -112 112s50 113 112 113zM225 305c-51 0 -92 -42 -92 -93c0 -27 12 -51 31 -68c16 9 35 12 40 24c1 7 1 12 1 18
c-3 2 -9 11 -10 20c-2 0 -6 4 -7 13c-1 5 2 7 3 8c-8 32 -4 60 34 61c9 0 16 -3 19 -8c28 -4 20 -41 16 -53c1 -1 4 -4 3 -9c-1 -9 -5 -12 -7 -12c-1 -9 -7 -18 -10 -20c0 -6 -1 -11 0 -18c5 -12 25 -15 41 -24c19 17 30 41 30 68c0 51 -41 93 -92 93z" />
    <glyph glyph-name="uniF12F" unicode="&#xf12f;" 
d="M29 438h454c16 0 29 -13 29 -29v-92v-1v-1v-10v-277c0 -6 -4 -10 -10 -10h-195v0c-6 0 -10 4 -10 10s4 10 10 10v0h185v267h-471v-267h174v0c6 0 10 -4 10 -10s-4 -10 -10 -10v0h-185c-6 0 -10 4 -10 10v277v10v1v1v92c0 16 13 29 29 29zM29 417c-5 0 -8 -3 -8 -8v-84
h471v84c0 5 -4 8 -9 8h-454zM67 397c14 0 25 -12 25 -26s-11 -25 -25 -25s-26 11 -26 25s12 26 26 26zM128 397c14 0 26 -12 26 -26s-12 -25 -26 -25s-26 11 -26 25s12 26 26 26zM174 397h10h277h10v-10v-31v-10h-10h-277h-10v10v31v10zM195 376v-10h256v10h-256zM256 237
l7 -7l82 -82c2 -2 3 -5 3 -7c0 -6 -4 -10 -10 -10c-2 0 -6 1 -8 3l-64 64v-129c0 -45 -13 -76 -36 -96s-54 -27 -87 -27h-41v0c-6 0 -10 4 -10 10s4 11 10 11v0h41c30 0 55 6 73 21s30 40 30 81v129l-64 -64c-2 -2 -6 -3 -8 -3c-6 0 -10 4 -10 10c0 2 1 5 3 7l82 82z" />
    <glyph glyph-name="uniF149" unicode="&#xf149;" horiz-adv-x="437" 
d="M101 393l16 -13l-66 -85l-7 -8l-8 7l-36 32l13 15l28 -25zM160 346h277v-21h-277v21zM101 250l16 -13l-66 -85l-7 -9l-8 7l-36 32l13 16l28 -25zM160 202h277v-20h-277v20zM101 106l16 -13l-66 -84l-7 -9l-8 7l-36 32l13 15l28 -24zM160 59h277v-21h-277v21z" />
    <glyph glyph-name="uniF14A" unicode="&#xf14a;" 
d="M29 315h260c16 0 28 -14 28 -30v-44c3 1 7 2 11 2h82c20 0 34 -14 43 -25v-1v0l42 -56h1s16 -22 16 -45v-98c0 -17 -14 -31 -31 -31h-20v10v11h20c4 0 11 6 11 10v82h-103c-9 0 -16 4 -21 9s-10 13 -10 22v41c0 18 15 30 31 30h50l-2 2v1c-8 9 -19 18 -27 18h-82
c-4 0 -11 -7 -11 -11v-194c0 -2 2 -5 4 -7s5 -3 7 -3h11c5 29 30 51 60 51c34 0 62 -28 62 -62s-28 -61 -62 -61c-30 0 -55 22 -60 51h-11c-8 0 -15 3 -20 8c-5 -5 -12 -8 -20 -8h-94c-5 -29 -31 -51 -61 -51s-55 22 -60 51h-42c-17 0 -31 14 -31 31v268c0 16 13 29 29 29z
M29 294c-5 0 -9 -3 -9 -8v-268c0 -4 7 -10 11 -10h42c5 29 30 51 60 51s56 -22 61 -51h94c5 0 9 3 9 8v2v194v73c0 5 -4 9 -8 9h-260zM389 182c-4 0 -10 -5 -10 -10v-41c0 -2 1 -5 3 -7s5 -4 7 -4h101c-2 12 -11 28 -11 28l-25 34h-65zM133 38c-23 0 -41 -18 -41 -41
s18 -41 41 -41s41 18 41 41s-18 41 -41 41zM399 38c-23 0 -41 -18 -41 -41s18 -41 41 -41s41 18 41 41s-18 41 -41 41z" />
    <glyph glyph-name="uniF112" unicode="&#xf112;" 
d="M256 448c141 0 256 -115 256 -256s-115 -256 -256 -256s-256 115 -256 256s115 256 256 256zM256 428c-130 0 -236 -106 -236 -236s106 -236 236 -236s236 106 236 236s-106 236 -236 236zM254 408h1v0h1v0v0c6 0 10 -4 10 -10v0v-24v0c0 -6 -4 -10 -10 -10s-10 4 -10 10
v0v24v0c0 5 3 9 8 10zM359 381h1c6 0 10 -4 10 -10c0 -2 -1 -5 -2 -6l-12 -21c-2 -3 -6 -5 -9 -5c-6 0 -10 5 -10 11c0 2 0 4 1 5l13 20c1 2 4 4 7 5zM151 380l1 1c3 0 7 -3 9 -6l13 -20c1 -1 1 -3 1 -5c0 -6 -4 -11 -10 -11c-3 0 -7 2 -9 5l-12 21c-1 1 -2 3 -2 5
c0 5 4 9 9 10zM76 306h2c2 0 4 -1 5 -2l21 -12c3 -2 5 -6 5 -9c0 -6 -5 -10 -11 -10c-2 0 -4 0 -5 1l-20 13c-3 2 -5 6 -5 9c0 5 3 9 8 10zM427 301v0c6 0 11 -4 11 -10c0 -3 -2 -7 -5 -9l-2 -1l-135 -93c-2 -20 -19 -37 -40 -37c-23 0 -41 18 -41 41s18 41 41 41
c6 0 11 -1 16 -3l149 69l2 1h2zM324 231l-34 -16c1 -2 2 -3 3 -5zM256 212c-12 0 -20 -8 -20 -20s8 -20 20 -20c11 0 18 6 20 16c-1 1 -1 3 -1 4s0 3 1 4v0c-2 10 -9 16 -20 16zM47 202h1v0h1v0h1v0h24v0c6 0 10 -4 10 -10s-4 -10 -10 -10v0h-24h-1c-6 0 -11 4 -11 10
c0 5 4 9 9 10zM436 202h1v0h1v0h24v0c6 0 10 -4 10 -10s-4 -10 -10 -10v0h-24h-1c-6 0 -10 4 -10 10c0 5 4 9 9 10zM97 111h1c6 0 11 -4 11 -10c0 -3 -2 -7 -5 -9l-21 -12c-1 -1 -3 -2 -5 -2c-6 0 -10 4 -10 10c0 3 2 7 5 9l20 13c1 1 3 1 4 1zM412 111h2c2 0 4 0 5 -1
l20 -13c3 -2 5 -6 5 -9c0 -6 -4 -10 -10 -10c-2 0 -4 1 -5 2l-21 12c-3 2 -5 6 -5 9c0 5 4 9 9 10z" />
    <glyph glyph-name="uniF10F" unicode="&#xf10f;" horiz-adv-x="492" 
d="M451 428c11 0 20 -10 20 -21s-9 -20 -20 -20h-2l-82 -115c1 -3 2 -5 2 -8c0 -11 -10 -21 -21 -21s-19 8 -20 19l-71 36c-3 -2 -7 -4 -11 -4c-3 0 -6 1 -8 2l-74 -60v-3c0 -11 -10 -21 -21 -21c-5 0 -9 2 -12 5l-70 -28c-1 -10 -10 -17 -20 -17c-11 0 -21 9 -21 20
s10 20 21 20c5 0 9 -1 12 -4l70 28c2 10 10 17 20 17c3 0 6 0 8 -1l75 60c0 1 -1 2 -1 3c0 11 10 20 21 20s19 -8 20 -19l71 -35c3 2 7 3 11 3h2l82 115c-1 3 -2 5 -2 8c0 11 10 21 21 21zM410 294h10h61h11v-10v-338v-10h-11h-61h-10v10v338v10zM430 274v-318h41v318h-41z
M205 202h10h61h11v-10v-246v-10h-11h-61h-10v10v246v10zM225 182v-226h41v226h-41zM307 151h10h62h10v-10v-195v-10h-10h-62h-10v10v195v10zM328 131v-175h41v175h-41zM102 120h11h61h10v-10v-164v-10h-10h-61h-11v10v164v10zM123 100v-144h41v144h-41zM0 79h10h62h10v-10
v-123v-10h-10h-62h-10v10v123v10zM20 59v-103h41v103h-41z" />
    <glyph glyph-name="uniF11C" unicode="&#xf11c;" 
d="M254 413h2c3 0 7 -2 9 -5l246 -426c1 -1 1 -3 1 -5c0 -6 -4 -10 -10 -10v0h-492v0c-6 0 -10 4 -10 10c0 2 0 4 1 5l246 426c1 2 4 5 7 5zM256 382l-228 -395h456zM244 254h24c2 0 3 -1 3 -3v-148c0 -2 -1 -4 -3 -4h-24c-2 0 -3 2 -3 4v148c0 2 1 3 3 3zM242 69h2h25
c2 0 3 -1 3 -3v-27c0 -2 -1 -3 -3 -3h-25c-2 0 -4 1 -4 3v27c0 2 1 2 2 3z" />
    <glyph glyph-name="uniF12E" unicode="&#xf12e;" 
d="M31 407h113c8 0 14 -5 18 -10s8 -10 11 -15s6 -10 9 -13l3 -3v0h266c17 0 31 -14 31 -31v-30c17 0 30 -14 30 -31v-1v-1l-51 -275v0v-1v-1v0v-2c-2 -15 -16 -26 -31 -26h-399c-15 0 -27 10 -30 24c-1 1 -1 4 -1 5v2v40v297v41c0 17 14 31 31 31zM31 387
c-6 0 -10 -5 -10 -11v-41v-227l31 166v2v0c1 16 14 29 30 29h379v30c0 6 -4 11 -10 11h-266c-8 0 -15 5 -19 10s-7 10 -10 15s-6 10 -9 13s-4 3 -3 3h-113zM82 284c-6 0 -10 -4 -10 -10v-1v-1l-51 -275c0 -6 4 -10 10 -10h399c5 0 9 3 10 7v1v1v0l1 2v0v0v1v0v1v2h1l50 272
c0 6 -4 10 -10 10h-8h-5h-387z" />
    <glyph glyph-name="uniF10A" unicode="&#xf10a;" horiz-adv-x="391" 
d="M369 360h1c11 0 21 -10 21 -21c0 -3 -2 -8 -4 -11l-206 -315c-3 -5 -11 -9 -17 -9c-4 0 -10 2 -13 5l-143 123c-5 3 -8 11 -8 17c0 11 9 20 20 20c5 0 12 -3 15 -6l125 -108l193 295c3 5 10 10 16 10z" />
    <glyph glyph-name="uniF148" unicode="&#xf148;" 
d="M143 449h1c6 0 10 -5 10 -11c0 -2 -1 -4 -2 -6l-82 -123c-2 -3 -5 -4 -8 -4s-7 1 -9 3l-51 62c-1 2 -2 4 -2 6c0 6 4 11 10 11c3 0 6 -2 8 -4l42 -51l75 112c1 2 4 3 6 4h1zM205 376h307v-20h-307v20zM143 275h1c6 0 10 -5 10 -11c0 -2 -1 -4 -2 -6l-82 -123
c-2 -3 -5 -5 -8 -5s-7 2 -9 4l-51 62c-1 2 -2 4 -2 6c0 6 4 10 10 10c3 0 6 -1 8 -3l42 -51l75 111c1 2 4 4 6 5h1zM205 202h307v-20h-307v20zM143 80h1c6 0 10 -4 10 -10c0 -2 -1 -5 -2 -7l-82 -123c-2 -3 -5 -4 -8 -4s-7 2 -9 4l-51 61c-1 2 -2 5 -2 7c0 6 4 10 10 10
c3 0 6 -2 8 -4l42 -50l75 111c1 2 4 3 6 4l1 1h1zM205 8h307v-21h-307v21z" />
    <glyph glyph-name="uniF124" unicode="&#xf124;" horiz-adv-x="410" 
d="M121 448v0h1v0h1h164c6 0 10 -4 10 -10v-10h82c17 0 31 -14 31 -31v-430c0 -17 -14 -31 -31 -31h-348c-17 0 -31 14 -31 31v430c0 17 14 31 31 31h82v10v0c0 5 3 9 8 10zM133 428v-21v-20v-21h143v41v21h-143zM31 407c-6 0 -11 -4 -11 -10v-430c0 -6 5 -11 11 -11h348
c6 0 10 5 10 11v430c0 6 -4 10 -10 10h-82v-20h61h11v-11v-389v-10h-11h-307h-10v10v389v11h10h62v20h-82zM61 366v-369h287v369h-51v-10c0 -6 -4 -10 -10 -10h-164c-6 0 -10 4 -10 10v10h-52zM284 257l17 -11l-6 -8l-90 -140l-6 -10l-9 8l-64 58l-7 7l13 15l8 -7l55 -49
l83 129z" />
    <glyph glyph-name="uniF138" unicode="&#xf138;" 
d="M256 448c11 0 31 -2 48 -16c9 -8 59 -53 108 -96s96 -85 96 -85c2 -2 4 -5 4 -8v-297c0 -6 -4 -10 -10 -10h-492c-6 0 -10 4 -10 10v297c0 3 2 6 4 8c0 0 47 42 96 86s100 88 108 95c17 14 37 16 48 16zM256 428c-8 0 -23 -2 -35 -12c-6 -5 -58 -51 -107 -95
c-48 -42 -91 -79 -94 -82v-1l62 -49v75v0c0 5 3 9 8 10h1v0h1v0h328c6 0 10 -4 10 -10v-75l62 49v1c-3 3 -46 40 -93 82c-49 43 -101 89 -108 95c-12 10 -27 12 -35 12zM102 253v-80l65 -51c13 10 31 24 37 29h-50h-1c-6 0 -11 4 -11 10c0 5 5 11 10 11v0h1v0h1h102h102h1
c6 0 10 -5 10 -11s-4 -10 -10 -10h-1h-50c6 -5 24 -19 37 -29l65 51v80h-308zM151 223v0h1v0h1v0h1h204h1c6 0 10 -5 10 -11s-4 -10 -10 -10h-1h-204h-2c-6 0 -10 4 -10 10c0 5 4 10 9 11zM20 212v-205c15 12 77 60 131 102zM492 212l-131 -103c54 -42 116 -90 131 -102v205
zM256 151c-8 0 -22 -2 -35 -12c-15 -12 -196 -154 -201 -158v-25h472v25c-5 4 -186 146 -201 158c-13 10 -27 12 -35 12z" />
    <glyph glyph-name="uniF114" unicode="&#xf114;" horiz-adv-x="383" 
d="M15 384l177 -177l177 177l14 -15l-177 -177l177 -177l-14 -15l-177 177l-177 -177l-15 15l177 177l-177 177z" />
  </font>
</defs>
</svg>
